<?xml version="1.0" standalone="no"?>
<!DOCTYPE svg PUBLIC "-//W3C//DTD SVG 1.1//EN" "http://www.w3.org/Graphics/SVG/1.1/DTD/svg11.dtd" >
<svg xmlns="http://www.w3.org/2000/svg" xmlns:xlink="http://www.w3.org/1999/xlink" version="1.1">
<metadata>
Created by FontForge 20170731 at Wed Mar 29 12:45:53 2006
 By Aleksey,,,
2005 Albert-Jan Pool published by FSI Fonts und Software GmbH
</metadata>
<defs>
<font id="DINPro-Regular" horiz-adv-x="530" >
  <font-face 
    font-family="DINPro-Regular"
    font-weight="400"
    font-stretch="normal"
    units-per-em="1000"
    panose-1="2 0 5 3 3 0 0 2 0 4"
    ascent="764"
    descent="-236"
    x-height="492"
    cap-height="712"
    bbox="-176 -229 1115 992"
    underline-thickness="51"
    underline-position="-235"
    unicode-range="U+000D-FB02"
  />
<missing-glyph horiz-adv-x="562" 
d="M90 0v712h382v-712h-382zM141 51h280v610h-280v-610z" />
    <glyph glyph-name="fi" unicode="fi" horiz-adv-x="562" 
d="M282 434h-105v-434h-72v434h-63v55h63v93q0 58 32.5 95t92.5 37h52v-62h-39q-66 0 -66 -72v-91h105v-55zM471 0h-72v489h72v-489zM476 639h-82v74h82v-74z" />
    <glyph glyph-name="fl" unicode="fl" horiz-adv-x="602" 
d="M282 434h-105v-434h-72v434h-63v55h63v93q0 58 32.5 95t92.5 37h52v-62h-39q-66 0 -66 -72v-91h105v-55zM573 0h-52q-62 0 -94 36t-32 95v581h72v-578q0 -37 15 -54.5t51 -17.5h40v-62z" />
    <glyph glyph-name=".notdef" horiz-adv-x="562" 
d="M90 0v712h382v-712h-382zM141 51h280v610h-280v-610z" />
    <glyph glyph-name=".null" horiz-adv-x="0" 
 />
    <glyph glyph-name=".null" horiz-adv-x="0" 
 />
    <glyph glyph-name="nonmarkingreturn" horiz-adv-x="333" 
 />
    <glyph glyph-name="CR" unicode="&#xd;" horiz-adv-x="249" 
 />
    <glyph glyph-name="space" unicode=" " horiz-adv-x="249" 
 />
    <glyph glyph-name="exclam" unicode="!" horiz-adv-x="316" 
d="M215 712l-11 -512h-62l-10 512h83zM216 0h-86v84h86v-84z" />
    <glyph glyph-name="quotedbl" unicode="&#x22;" horiz-adv-x="423" 
d="M335 542h-79v170h79v-170zM167 542h-79v170h79v-170z" />
    <glyph glyph-name="numbersign" unicode="#" horiz-adv-x="653" 
d="M602 432h-96l-23 -141h89v-64h-99l-36 -227h-74l36 227h-160l-35 -227h-74l36 227h-89v64h100l23 141h-92v66h101l34 215h75l-35 -215h159l34 215h73l-34 -215h87v-66zM432 432h-159l-23 -141h159z" />
    <glyph glyph-name="dollar" unicode="$" horiz-adv-x="596" 
d="M540 196q0 -86 -59 -139.5t-159 -60.5v-110h-60v108q-70 3 -121.5 25t-98.5 69l52 52q73 -73 172 -77v265l-20 2q-75 7 -130 54q-55 49 -55 133q0 85 54 139t147 61v89h60v-89q106 -5 186 -77l-49 -49q-61 55 -140 60v-259l31 -5q88 -15 129 -50q61 -52 61 -141zM464 194
q0 59 -35 89q-7 6 -13.5 10.5t-16 8.5t-14 6t-16.5 4t-15 3t-18 3t-17 2v-257q68 5 106.5 39.5t38.5 91.5zM266 399v252q-62 -5 -96 -40t-34 -91q0 -54 32 -82q36 -30 98 -39z" />
    <glyph glyph-name="percent" unicode="%" horiz-adv-x="833" 
d="M769 128q0 -61 -38 -98t-97 -37t-97 37t-38 98v105q0 61 38 98t97 37t97 -37t38 -98v-105zM335 479q0 -60 -38 -97t-97 -37t-97 37t-38 97v105q0 61 38 98t97 37t97 -37t38 -98v-105zM614 712l-334 -712h-60l334 712h60zM712 130v101q0 87 -78 87t-78 -87v-101
q0 -87 78 -87t78 87zM278 481v101q0 87 -78 87t-78 -87v-101q0 -86 78 -86t78 86z" />
    <glyph glyph-name="ampersand" unicode="&#x26;" horiz-adv-x="739" 
d="M671 0h-95l-64 78q-90 -84 -210 -84q-103 0 -164 56.5t-61 150.5q0 38 12 70t37 58.5t46.5 43t58.5 41.5q-25 30 -37 46.5t-26 47.5t-14 61q0 64 44.5 106.5t112.5 42.5q67 0 111 -43t44 -107q0 -73 -79 -127q-36 -24 -53 -36l182 -219q22 33 30.5 68t9.5 95h72
q-2 -141 -66 -218zM469 130l-196 236q-32 -22 -46.5 -33t-36 -32.5t-30.5 -45t-9 -52.5q0 -63 42 -102.5t108 -39.5q91 0 168 69zM395 568q0 36 -24 60.5t-60 24.5t-59 -23.5t-23 -59.5q0 -24 13.5 -48.5t50.5 -68.5l38 26q31 21 47.5 41t16.5 48z" />
    <glyph glyph-name="quotesingle" unicode="'" horiz-adv-x="255" 
d="M167 542h-79v170h79v-170z" />
    <glyph glyph-name="parenleft" unicode="(" horiz-adv-x="298" 
d="M234 -45l-49 -49q-55 55 -72 86q-21 39 -21 103v522q0 65 21 103q17 31 72 86l49 -49q-43 -43 -54 -65q-16 -32 -16 -81v-510q0 -49 16 -81q11 -22 54 -65z" />
    <glyph glyph-name="parenright" unicode=")" horiz-adv-x="298" 
d="M205 95q0 -66 -20 -103q-17 -31 -72 -86l-51 51q45 45 55 65q14 28 14 79v510q0 51 -14 79q-10 20 -55 65l51 51q55 -55 72 -86q20 -37 20 -103v-522z" />
    <glyph glyph-name="asterisk" unicode="*" horiz-adv-x="474" 
d="M407 472l-28 -49l-117 71l4 -137h-58l4 137l-116 -71l-29 49l120 65l-120 66l29 48l116 -71l-4 137h58l-4 -137l117 71l28 -48l-120 -66z" />
    <glyph glyph-name="plus" unicode="+" horiz-adv-x="522" 
d="M470 234h-175v-176h-67v176h-176v67h176v174h67v-174h175v-67z" />
    <glyph glyph-name="comma" unicode="," horiz-adv-x="264" 
d="M176 -65l-88 -79v232h88v-153z" />
    <glyph glyph-name="hyphen" unicode="-" horiz-adv-x="426" 
d="M350 236h-274v67h274v-67z" />
    <glyph glyph-name="period" unicode="." horiz-adv-x="270" 
d="M182 0h-94v94h94v-94z" />
    <glyph glyph-name="slash" unicode="/" horiz-adv-x="355" 
d="M356 786l-285 -860h-71l285 860h71z" />
    <glyph glyph-name="zero" unicode="0" horiz-adv-x="522" 
d="M456 190q0 -87 -55.5 -141.5t-139.5 -54.5t-139.5 54.5t-55.5 141.5v332q0 87 55.5 141.5t139.5 54.5t139.5 -54.5t55.5 -141.5v-332zM384 194v324q0 60 -32.5 98t-90.5 38t-90.5 -38t-32.5 -98v-324q0 -60 32.5 -98t90.5 -38t90.5 38t32.5 98z" />
    <glyph glyph-name="one" unicode="1" horiz-adv-x="522" 
d="M330 0h-72v632l-133 -117v82l133 115h72v-712z" />
    <glyph glyph-name="two" unicode="2" horiz-adv-x="522" 
d="M461 0h-393v64l281 357q40 52 40 105q0 58 -33 93t-91 35q-54 0 -89 -32t-35 -97h-72q0 85 54 139t142 54t142 -52.5t54 -139.5q0 -41 -13 -73t-44 -71l-249 -318h306v-64z" />
    <glyph glyph-name="three" unicode="3" horiz-adv-x="522" 
d="M460 194q0 -95 -59 -148t-150 -53q-89 0 -147 47.5t-62 140.5h72q4 -63 42.5 -93.5t94.5 -30.5q59 0 98 37t39 101q0 138 -140 138h-15v63h15q64 0 95.5 33.5t31.5 95.5t-35 96t-89 34q-56 0 -89.5 -32t-38.5 -87h-72q6 85 61.5 134t138.5 49q87 0 141.5 -53t54.5 -140
q0 -114 -96 -158q109 -41 109 -174z" />
    <glyph glyph-name="four" unicode="4" horiz-adv-x="522" 
d="M482 113h-87v-113h-71v113h-284v65l257 534h77l-257 -534h207v202h71v-202h87v-65z" />
    <glyph glyph-name="five" unicode="5" horiz-adv-x="522" 
d="M462 235q0 -64 -11 -109t-46 -80q-53 -53 -142 -53q-92 0 -143 51q-44 45 -50 124h72q14 -111 121 -111q55 0 88 33q39 39 39 145q0 37 -4.5 64.5t-16.5 54t-37 40.5t-62 14q-46 0 -76.5 -19t-41.5 -51h-65v374h360v-64h-295v-226q44 49 128 49q78 0 123 -45
q59 -59 59 -191z" />
    <glyph glyph-name="six" unicode="6" horiz-adv-x="522" 
d="M460 205q0 -92 -54 -151.5t-143 -59.5q-90 0 -144 56t-54 149q0 70 45 160l175 353h74l-159 -320q33 15 75 15q83 0 134 -56.5t51 -145.5zM388 202q0 62 -33.5 103t-92.5 41q-57 0 -91 -39t-34 -105q0 -65 34 -104.5t91 -39.5t91.5 39.5t34.5 104.5z" />
    <glyph glyph-name="seven" unicode="7" horiz-adv-x="522" 
d="M471 648l-247 -648h-76l247 648h-248v-112h-71v176h395v-64z" />
    <glyph glyph-name="eight" unicode="8" horiz-adv-x="522" 
d="M471 196q0 -89 -60 -145.5t-150 -56.5t-150 56.5t-60 145.5q0 112 107 173q-93 53 -93 158q0 83 55.5 137t140.5 54t140.5 -54t55.5 -137q0 -105 -92 -158q106 -60 106 -173zM399 197q0 59 -39.5 99t-98.5 40t-98.5 -40t-39.5 -99t39.5 -99t98.5 -40t98.5 40t39.5 99z
M385 526q0 56 -34.5 92t-89.5 36t-89.5 -36t-34.5 -92t34.5 -91.5t89.5 -35.5t89.5 35.5t34.5 91.5z" />
    <glyph glyph-name="nine" unicode="9" horiz-adv-x="522" 
d="M457 513q0 -70 -45 -160l-175 -353h-75l160 320q-33 -15 -76 -15q-82 0 -133 56.5t-51 145.5q0 92 54 151.5t143 59.5q90 0 144 -56t54 -149zM385 510q0 65 -34.5 104.5t-91.5 39.5t-91 -39.5t-34 -104.5q0 -62 33 -103t92 -41q57 0 91.5 39t34.5 105z" />
    <glyph glyph-name="colon" unicode=":" horiz-adv-x="297" 
d="M209 301h-94v94h94v-94zM209 0h-94v94h94v-94z" />
    <glyph glyph-name="semicolon" unicode=";" horiz-adv-x="297" 
d="M205 -65l-88 -79v232h88v-153zM209 301h-94v94h94v-94z" />
    <glyph glyph-name="less" unicode="&#x3c;" horiz-adv-x="522" 
d="M426 68l-331 168v66l331 168v-77l-250 -124l250 -124v-77z" />
    <glyph glyph-name="equal" unicode="=" horiz-adv-x="522" 
d="M470 320h-418v67h418v-67zM470 151h-418v66h418v-66z" />
    <glyph glyph-name="greater" unicode="&#x3e;" horiz-adv-x="522" 
d="M426 236l-331 -168v77l250 124l-250 124v77l331 -168v-66z" />
    <glyph glyph-name="question" unicode="?" horiz-adv-x="497" 
d="M451 536q0 -55 -45 -121l-82 -118q-18 -27 -18 -58v-39h-72v40q0 50 31 94l81 117q33 49 33 85q0 51 -32.5 84.5t-82.5 33.5q-52 0 -84 -35t-32 -84h-72q0 77 54 130t134 53t133.5 -51.5t53.5 -130.5zM313 0h-86v84h86v-84z" />
    <glyph glyph-name="at" unicode="@" horiz-adv-x="713" 
d="M641 -1l-69 1v55q-49 -62 -134 -62q-88 0 -136 61q-25 31 -34.5 72.5t-9.5 111.5q0 129 41 183q46 62 138 62q83 0 134 -63v78q0 74 -39 114q-40 40 -111 40h-130q-69 0 -109 -40q-22 -22 -31 -47.5t-9 -66.5v-337q0 -47 11.5 -71.5t45.5 -49.5l-49 -49q-46 34 -62 68.5
t-16 100.5v336q0 104 56 161q55 56 154 56h148q98 0 154 -56q57 -57 57 -161v-497zM571 238q0 39 -4.5 68.5t-16.5 57t-37 42.5t-63 15q-71 0 -96 -49.5t-25 -133.5q0 -39 4.5 -68.5t16.5 -57t37 -42.5t63 -15q71 0 96 49.5t25 133.5z" />
    <glyph glyph-name="A" unicode="A" horiz-adv-x="611" 
d="M599 0h-81l-57 161h-311l-57 -161h-81l262 712h64zM439 227l-132 376l-134 -376h266z" />
    <glyph glyph-name="B" unicode="B" horiz-adv-x="668" 
d="M592 197q0 -95 -57.5 -146t-154.5 -51h-277v712h268q94 0 152 -51t58 -139q0 -55 -29.5 -97t-75.5 -59q53 -19 84.5 -63t31.5 -106zM516 199q0 60 -38.5 95t-104.5 35h-194v-261h194q66 0 104.5 35.5t38.5 95.5zM505 521q0 61 -38.5 92t-101.5 31h-186v-247h186
q62 0 101 31.5t39 92.5z" />
    <glyph glyph-name="C" unicode="C" horiz-adv-x="637" 
d="M572 206q-17 -99 -84 -155.5t-163 -56.5q-108 0 -182 74q-46 46 -56.5 101.5t-10.5 186.5t10.5 186.5t56.5 101.5q74 74 182 74q97 0 163 -56t84 -156h-78q-14 66 -58.5 105t-110.5 39q-75 0 -123 -50q-32 -33 -41 -80t-9 -164t9 -164t41 -80q48 -50 123 -50
q66 0 111.5 39t59.5 105h76z" />
    <glyph glyph-name="D" unicode="D" horiz-adv-x="673" 
d="M597 364q0 -134 -13 -189q-17 -69 -57 -109q-66 -66 -180 -66h-244v712h244q114 0 180 -66q21 -21 35.5 -50.5t21 -50t10 -63t3.5 -55.5v-63zM521 364q0 62 -1 90.5t-12 71t-34 66.5q-51 52 -140 52h-155v-576h155q89 0 140 52q23 24 34 71t12 77.5t1 95.5z" />
    <glyph glyph-name="E" unicode="E" horiz-adv-x="600" 
d="M545 0h-442v712h442v-68h-366v-251h312v-68h-312v-257h366v-68z" />
    <glyph glyph-name="F" unicode="F" horiz-adv-x="580" 
d="M545 644h-366v-262h312v-68h-312v-314h-76v712h442v-68z" />
    <glyph glyph-name="G" unicode="G" horiz-adv-x="650" 
d="M576 260q0 -119 -61 -184q-76 -82 -190 -82q-108 0 -182 74q-46 46 -56.5 101.5t-10.5 186.5t10.5 186.5t56.5 101.5q74 74 182 74q100 0 166.5 -58.5t82.5 -154.5h-76q-15 68 -61 106.5t-112 38.5q-74 0 -123 -51q-32 -33 -41 -79.5t-9 -163.5t9 -164t41 -80
q48 -50 123 -50q85 0 135 61q40 48 40 129v54h-175v67h251v-113z" />
    <glyph glyph-name="H" unicode="H" horiz-adv-x="696" 
d="M593 0h-76v325h-338v-325h-76v712h76v-319h338v319h76v-712z" />
    <glyph glyph-name="I" unicode="I" horiz-adv-x="282" 
d="M179 0h-76v712h76v-712z" />
    <glyph glyph-name="J" unicode="J" horiz-adv-x="501" 
d="M408 216q0 -102 -61.5 -162t-160.5 -60t-163 64l51 51q23 -23 47.5 -35t64.5 -12q70 0 108 42.5t38 121.5v486h76v-496z" />
    <glyph glyph-name="K" unicode="K" horiz-adv-x="650" 
d="M636 0h-90l-217 379l-150 -180v-199h-76v712h76v-409l332 409h93l-224 -275z" />
    <glyph glyph-name="L" unicode="L" horiz-adv-x="573" 
d="M543 0h-440v712h76v-644h364v-68z" />
    <glyph glyph-name="M" unicode="M" horiz-adv-x="816" 
d="M713 0h-76v541l-195 -429h-65l-198 429v-541h-76v712h76l232 -505l226 505h76v-712z" />
    <glyph glyph-name="N" unicode="N" horiz-adv-x="732" 
d="M629 0h-72l-378 571v-571h-76v712h72l378 -569v569h76v-712z" />
    <glyph glyph-name="O" unicode="O" horiz-adv-x="650" 
d="M574 356q0 -131 -10.5 -186.5t-56.5 -101.5q-74 -74 -182 -74t-182 74q-46 46 -56.5 101.5t-10.5 186.5t10.5 186.5t56.5 101.5q74 74 182 74t182 -74q46 -46 56.5 -101.5t10.5 -186.5zM498 356q0 117 -9 163.5t-41 79.5q-49 51 -123 51t-123 -51q-32 -33 -41 -79.5
t-9 -163.5t9 -163.5t41 -79.5q49 -51 123 -51t123 51q32 33 41 79.5t9 163.5z" />
    <glyph glyph-name="P" unicode="P" horiz-adv-x="630" 
d="M588 503q0 -95 -61 -152.5t-159 -57.5h-189v-293h-76v712h265q98 0 159 -57t61 -152zM512 503q0 69 -41 105t-110 36h-182v-283h182q69 0 110 36.5t41 105.5z" />
    <glyph glyph-name="Q" unicode="Q" horiz-adv-x="649" 
d="M603 11l-46 -46l-79 79q-65 -50 -153 -50q-108 0 -182 74q-46 46 -56.5 101.5t-10.5 186.5t10.5 186.5t56.5 101.5q74 74 182 74t182 -74q46 -46 56.5 -101.5t10.5 -186.5q0 -83 -2 -119.5t-12.5 -77.5t-34.5 -70zM498 356q0 117 -9 163.5t-41 79.5q-49 51 -123 51
t-123 -51q-32 -33 -41 -79.5t-9 -163.5t9 -163.5t41 -79.5q49 -51 123 -51q56 0 101 34l-90 90l46 46l87 -87q18 30 23.5 74t5.5 137z" />
    <glyph glyph-name="R" unicode="R" horiz-adv-x="656" 
d="M601 0h-89l-162 316h-171v-316h-76v712h273q94 0 152.5 -53.5t58.5 -144.5q0 -76 -42 -126t-113 -65zM511 513q0 63 -39 97t-103 34h-190v-261h190q65 0 103.5 33.5t38.5 96.5z" />
    <glyph glyph-name="S" unicode="S" horiz-adv-x="588" 
d="M532 196q0 -93 -67 -147.5t-179 -54.5q-80 0 -137 22t-107 72l52 52q43 -43 87.5 -60.5t106.5 -17.5q78 0 123 35t45 97q0 59 -34 89q-17 15 -35 21.5t-58 12.5l-83 13q-85 14 -131 54q-54 48 -54 133q0 91 61.5 146t166.5 55q68 0 117 -18t95 -60l-49 -49
q-67 61 -166 61q-70 0 -110 -36t-40 -96q0 -54 32 -82q33 -29 96 -39l78 -12q87 -13 130 -50q60 -51 60 -141z" />
    <glyph glyph-name="T" unicode="T" horiz-adv-x="548" 
d="M518 644h-206v-644h-76v644h-206v68h488v-68z" />
    <glyph glyph-name="U" unicode="U" horiz-adv-x="683" 
d="M590 235q0 -106 -70.5 -173.5t-178.5 -67.5t-178 67.5t-70 173.5v477h76v-471q0 -81 47 -130t125 -49t125.5 49t47.5 130v471h76v-477z" />
    <glyph glyph-name="V" unicode="V" horiz-adv-x="546" 
d="M538 712l-234 -712h-62l-234 712h80l185 -576l185 576h80z" />
    <glyph glyph-name="W" unicode="W" horiz-adv-x="854" 
d="M838 712l-182 -712h-71l-158 570l-158 -570h-71l-182 712h81l139 -574l157 574h68l157 -574l139 574h81z" />
    <glyph glyph-name="X" unicode="X" horiz-adv-x="551" 
d="M536 0h-88l-173 299l-174 -299h-86l218 365l-204 347h88l158 -281l158 281h88l-205 -347z" />
    <glyph glyph-name="Y" unicode="Y" horiz-adv-x="514" 
d="M506 712l-210 -418v-294h-76v294l-212 418h82l168 -341l166 341h82z" />
    <glyph glyph-name="Z" unicode="Z" horiz-adv-x="556" 
d="M499 0h-442v72l356 572h-342v68h428v-64l-359 -580h359v-68z" />
    <glyph glyph-name="bracketleft" unicode="[" horiz-adv-x="313" 
d="M269 -74h-177v860h177v-64h-105v-732h105v-64z" />
    <glyph glyph-name="backslash" unicode="\" horiz-adv-x="355" 
d="M355 -74h-71l-284 857h71z" />
    <glyph glyph-name="bracketright" unicode="]" horiz-adv-x="313" 
d="M221 -74h-177v62h108v736h-108v62h177v-860z" />
    <glyph glyph-name="asciicircum" unicode="^" horiz-adv-x="537" 
d="M465 413h-74l-122 228l-123 -228h-74l164 305h66z" />
    <glyph glyph-name="underscore" unicode="_" horiz-adv-x="537" 
d="M537 -165h-537v51h537v-51z" />
    <glyph glyph-name="grave" unicode="`" horiz-adv-x="500" 
d="M299 594h-66l-108 153h86z" />
    <glyph glyph-name="a" unicode="a" horiz-adv-x="526" 
d="M441 0h-72v47q-30 -30 -61 -41.5t-81 -11.5q-95 0 -139 45q-37 37 -37 100q0 66 44.5 104t125.5 38h148v47q0 55 -30 81.5t-96 26.5q-47 0 -74.5 -12.5t-49.5 -43.5l-49 45q32 41 72 57t102 16q197 0 197 -164v-334zM369 174v53h-138q-110 0 -110 -87q0 -84 113 -84
q76 0 110 33q25 24 25 85z" />
    <glyph glyph-name="b" unicode="b" horiz-adv-x="545" 
d="M481 246q0 -149 -60 -209q-43 -43 -120 -43q-89 0 -139 65v-59h-72v712h72v-277q49 63 139 63q77 0 120 -43q60 -60 60 -209zM409 246q0 41 -4.5 71t-16.5 58.5t-38 43.5t-64 15t-64 -15t-38.5 -43.5t-17 -58.5t-4.5 -71t4.5 -71t17 -58.5t38.5 -43.5t64 -15t64 15
t38 43.5t16.5 58.5t4.5 71z" />
    <glyph glyph-name="c" unicode="c" horiz-adv-x="490" 
d="M443 67q-38 -41 -74 -57t-88 -16q-97 0 -157.5 65t-60.5 187t60.5 187t157.5 65q52 0 88 -16t74 -57l-49 -46q-28 31 -53 43t-60 12q-75 0 -114 -56q-32 -45 -32 -132t32 -132q39 -56 114 -56q35 0 60 12.5t53 43.5z" />
    <glyph glyph-name="d" unicode="d" horiz-adv-x="545" 
d="M455 0h-71v59q-50 -65 -140 -65q-77 0 -120 43q-60 60 -60 209t60 209q43 43 120 43q90 0 139 -63v277h72v-712zM383 246q0 41 -4.5 71t-16.5 58.5t-38 43.5t-64 15t-64 -15t-38.5 -43.5t-17 -58.5t-4.5 -71t4.5 -71t17 -58.5t38.5 -43.5t64 -15t64 15t38 43.5t16.5 58.5
t4.5 71z" />
    <glyph glyph-name="e" unicode="e" 
d="M467 227h-332q0 -81 37.5 -125.5t107.5 -44.5q42 0 70.5 13t58.5 43l49 -43q-40 -40 -80 -58t-100 -18q-101 0 -158 62.5t-57 189.5q0 119 54 185.5t148 66.5q95 0 148.5 -64t53.5 -174v-33zM395 281q-3 52 -15 82q-14 34 -45 54t-70 20t-70 -20t-45 -54q-12 -30 -15 -82
h260z" />
    <glyph glyph-name="f" unicode="f" horiz-adv-x="314" 
d="M283 434h-105v-434h-72v434h-63v55h63v93q0 58 32.5 95t92.5 37h52v-62h-39q-66 0 -66 -72v-91h105v-55z" />
    <glyph glyph-name="g" unicode="g" horiz-adv-x="543" 
d="M453 -15q0 -93 -55 -152t-150 -59q-54 0 -90.5 15t-76.5 51l47 46q30 -27 54 -38t64 -11q68 0 101.5 42t33.5 109v77q-50 -64 -138 -64q-75 0 -119 44q-60 60 -60 205t60 205q43 43 120 43q89 0 138 -64v58h71v-507zM381 250q0 39 -4.5 68t-16.5 57.5t-37.5 43.5
t-63.5 15t-64 -15t-38 -43.5t-16.5 -57.5t-4.5 -68t4.5 -68t16.5 -57.5t38 -43.5t64 -15t63.5 15t37.5 43.5t16.5 57.5t4.5 68z" />
    <glyph glyph-name="h" unicode="h" horiz-adv-x="562" 
d="M477 0h-72v304q0 63 -31.5 96.5t-88.5 33.5t-90 -33.5t-33 -96.5v-304h-72v712h72v-274q53 60 138 60q83 0 130 -49t47 -133v-316z" />
    <glyph glyph-name="i" unicode="i" horiz-adv-x="253" 
d="M162 0h-72v492h72v-492zM167 632h-81v81h81v-81z" />
    <glyph glyph-name="j" unicode="j" horiz-adv-x="253" 
d="M162 -89q0 -59 -31.5 -95.5t-93.5 -36.5h-52v63h39q36 0 51 17.5t15 54.5v575h72v-578zM167 632h-81v81h81v-81z" />
    <glyph glyph-name="k" unicode="k" horiz-adv-x="536" 
d="M503 0h-89l-156 252l-96 -110v-142h-72v712h72v-476l222 256h90l-167 -188z" />
    <glyph glyph-name="l" unicode="l" horiz-adv-x="297" 
d="M265 0h-52q-62 0 -93.5 36t-31.5 95v581h72v-578q0 -37 15 -54.5t51 -17.5h39v-62z" />
    <glyph glyph-name="m" unicode="m" horiz-adv-x="879" 
d="M794 0h-72v303q0 64 -32 97.5t-89 33.5q-55 0 -89 -33t-34 -90v-311h-72v303q0 64 -32 97.5t-89 33.5t-90 -34t-33 -97v-303h-72v492h72v-54q52 60 139 60q105 0 151 -82q58 82 162 82q79 0 127 -46q53 -51 53 -137v-315z" />
    <glyph glyph-name="n" unicode="n" horiz-adv-x="562" 
d="M477 0h-72v303q0 64 -32 97.5t-89 33.5t-89.5 -34t-32.5 -97v-303h-72v492h72v-54q52 60 138 60q80 0 126 -46q51 -50 51 -137v-315z" />
    <glyph glyph-name="o" unicode="o" 
d="M466 246q0 -135 -60 -196q-56 -56 -141 -56t-141 56q-60 61 -60 196t60 196q56 56 141 56t141 -56q60 -61 60 -196zM394 246q0 113 -39 152q-36 36 -90 36q-53 0 -89 -36q-40 -40 -40 -152t40 -152q36 -36 89 -36q54 0 90 36q39 39 39 152z" />
    <glyph glyph-name="p" unicode="p" horiz-adv-x="545" 
d="M481 246q0 -149 -60 -209q-43 -43 -120 -43q-89 0 -139 64v-278h-72v712h72v-58q49 64 139 64q77 0 120 -43q60 -60 60 -209zM409 246q0 41 -4.5 71t-16.5 58.5t-38 43.5t-64 15t-64 -15t-38.5 -43.5t-17 -58.5t-4.5 -71t4.5 -71t17 -58.5t38.5 -43.5t64 -15t64 15
t38 43.5t16.5 58.5t4.5 71z" />
    <glyph glyph-name="q" unicode="q" horiz-adv-x="545" 
d="M455 -220h-72v278q-50 -64 -139 -64q-77 0 -120 43q-60 60 -60 209t60 209q43 43 120 43q91 0 140 -64v58h71v-712zM383 246q0 41 -4.5 71t-16.5 58.5t-38 43.5t-64 15t-64 -15t-38.5 -43.5t-17 -58.5t-4.5 -71t4.5 -71t17 -58.5t38.5 -43.5t64 -15t64 15t38 43.5
t16.5 58.5t4.5 71z" />
    <glyph glyph-name="r" unicode="r" horiz-adv-x="421" 
d="M418 452l-53 -54q-20 20 -38.5 28t-46.5 8q-53 0 -85.5 -37.5t-32.5 -94.5v-302h-72v492h72v-60q20 31 57.5 48.5t80.5 17.5q72 0 118 -46z" />
    <glyph glyph-name="s" unicode="s" horiz-adv-x="496" 
d="M445 144q0 -70 -54.5 -110t-145.5 -40q-128 0 -202 71l48 48q54 -57 153 -57q62 0 96.5 22t34.5 65q0 65 -82 72l-81 7q-147 12 -147 132q0 66 50.5 105t130.5 39q112 0 177 -53l-47 -47q-51 39 -131 39q-53 0 -81.5 -21.5t-28.5 -59.5q0 -65 86 -72l79 -7
q70 -6 107.5 -37t37.5 -96z" />
    <glyph glyph-name="t" unicode="t" horiz-adv-x="332" 
d="M279 0h-51q-61 0 -93.5 37t-32.5 95v302h-62v55h62v154h72v-154h105v-55h-105v-300q0 -72 67 -72h38v-62z" />
    <glyph glyph-name="u" unicode="u" horiz-adv-x="562" 
d="M472 0h-71v55q-53 -61 -139 -61q-81 0 -127 46q-50 49 -50 138v314h72v-303q0 -64 31.5 -97.5t88.5 -33.5t90 34t33 97v303h72v-492z" />
    <glyph glyph-name="v" unicode="v" horiz-adv-x="447" 
d="M436 492l-181 -492h-64l-180 492h78l134 -395l135 395h78z" />
    <glyph glyph-name="w" unicode="w" horiz-adv-x="724" 
d="M713 492l-155 -492h-67l-129 382l-128 -382h-67l-156 492h78l113 -395l129 395h62l130 -395l112 395h78z" />
    <glyph glyph-name="x" unicode="x" horiz-adv-x="478" 
d="M445 0h-87l-118 191l-120 -191h-87l167 251l-160 241h87l113 -182l111 182h87l-160 -241z" />
    <glyph glyph-name="y" unicode="y" horiz-adv-x="447" 
d="M436 492l-224 -611q-14 -39 -35 -58q-35 -34 -96 -34h-31v64h22q36 0 52.5 13t28.5 48l35 96l-177 482h78l135 -395l134 395h78z" />
    <glyph glyph-name="z" unicode="z" horiz-adv-x="459" 
d="M407 0h-357v62l274 366h-259v64h342v-61l-275 -367h275v-64z" />
    <glyph glyph-name="braceleft" unicode="{" horiz-adv-x="354" 
d="M305 -74h-37q-71 0 -101 30t-30 99v191q0 42 -18 60t-45 18h-26v64h26q27 0 45 18t18 60v191q0 69 30 99t101 30h37v-64h-23q-46 0 -59 -13q-14 -14 -14 -65v-188q0 -40 -16 -62.5t-47 -37.5q31 -15 47 -37.5t16 -62.5v-188q0 -51 14 -65q13 -13 59 -13h23v-64z" />
    <glyph glyph-name="bar" unicode="|" horiz-adv-x="326" 
d="M199 -74h-72v860h72v-860z" />
    <glyph glyph-name="braceright" unicode="}" horiz-adv-x="354" 
d="M305 324h-25q-27 0 -45 -18t-18 -60v-191q0 -69 -30 -99t-101 -30h-38v64h24q45 0 58 13q15 15 15 65v188q0 40 16 62.5t47 37.5q-31 15 -47 37.5t-16 62.5v188q0 50 -15 65q-13 13 -58 13h-24v64h38q71 0 101 -30t30 -99v-191q0 -42 18 -60t45 -18h25v-64z" />
    <glyph glyph-name="asciitilde" unicode="~" horiz-adv-x="539" 
d="M490 278q-41 -41 -67.5 -54.5t-61.5 -13.5q-37 0 -106 31q-52 24 -78 24q-22 0 -39 -8.5t-45 -36.5l-44 45q41 41 67.5 54.5t61.5 13.5q36 0 105 -31q52 -24 78 -24q22 0 39 8.5t45 36.5z" />
    <glyph glyph-name="uni00A0" unicode="&#xa0;" horiz-adv-x="249" 
 />
    <glyph glyph-name="exclamdown" unicode="&#xa1;" horiz-adv-x="316" 
d="M184 -220h-83l10 512h62zM185 408h-86v84h86v-84z" />
    <glyph glyph-name="cent" unicode="&#xa2;" horiz-adv-x="498" 
d="M448 189q-34 -37 -67.5 -54t-77.5 -20v-115h-59v117q-84 12 -132.5 77.5t-48.5 171.5t48.5 171.5t132.5 77.5v97h59v-95q44 -3 77.5 -20t67.5 -54l-49 -46q-45 51 -100 55v-372q55 4 100 55zM248 182v368q-49 -9 -80 -52q-33 -46 -33 -132t33 -132q31 -43 80 -52z" />
    <glyph glyph-name="sterling" unicode="&#xa3;" horiz-adv-x="548" 
d="M496 0h-386v330h-63v54h63v112q0 101 62 161.5t161 60.5t163 -64l-52 -51q-24 24 -47.5 35.5t-63.5 11.5q-70 0 -108 -42.5t-38 -121.5v-102h146v-54h-146v-262h309v-68z" />
    <glyph glyph-name="currency" unicode="&#xa4;" horiz-adv-x="660" 
d="M582 65l-46 -46l-75 74q-59 -44 -131 -44q-73 0 -132 44l-74 -74l-46 46l74 74q-44 59 -44 132t44 132l-74 73l46 46l74 -73q57 43 132 43q74 0 131 -43l75 73l46 -46l-74 -73q44 -59 44 -132t-44 -132zM485 271q0 65 -45.5 110t-109.5 45q-65 0 -110.5 -45.5
t-45.5 -109.5q0 -65 46 -110.5t110 -45.5t109.5 45.5t45.5 110.5z" />
    <glyph glyph-name="yen" unicode="&#xa5;" horiz-adv-x="514" 
d="M506 712l-157 -311h100v-54h-127l-26 -53v-52h153v-55h-153v-187h-77v187h-154v55h154v52l-26 53h-128v54h100l-157 311h82l168 -341l167 341h81z" />
    <glyph glyph-name="brokenbar" unicode="&#xa6;" horiz-adv-x="335" 
d="M199 436h-72v350h72v-350zM199 -74h-72v350h72v-350z" />
    <glyph glyph-name="section" unicode="&#xa7;" horiz-adv-x="557" 
d="M470 254q0 -57 -30 -99.5t-74 -64.5q44 -16 70.5 -53.5t26.5 -90.5q0 -77 -52.5 -124.5t-131.5 -47.5q-78 0 -131.5 42t-57.5 119h73q4 -46 34.5 -70.5t81.5 -24.5q52 0 81.5 27.5t29.5 77.5q0 35 -23.5 62.5t-64.5 39.5l-78 22q-66 19 -101.5 66.5t-35.5 116.5
q0 58 30 100t75 64q-93 42 -93 138q0 73 50.5 118.5t129.5 45.5t129 -42.5t53 -114.5h-72q-7 93 -110 93q-51 0 -79.5 -25.5t-28.5 -73.5q0 -72 84 -96l78 -22q65 -19 101 -67t36 -116zM397 253q0 60 -32 92q-36 36 -86 36q-53 0 -86 -36t-33 -92t33 -92t86 -36t86 36
q32 35 32 92z" />
    <glyph glyph-name="dieresis" unicode="&#xa8;" horiz-adv-x="500" 
d="M392 602h-72v89h72v-89zM180 602h-72v89h72v-89z" />
    <glyph glyph-name="copyright" unicode="&#xa9;" horiz-adv-x="881" 
d="M802 356q0 -150 -106 -256t-256 -106t-256 106t-106 256t106 256t256 106t256 -106t106 -256zM744 356q0 127 -89 217.5t-215 90.5t-214.5 -90.5t-88.5 -217.5t88.5 -217.5t214.5 -90.5t215 90.5t89 217.5zM576 205q-58 -52 -131 -52q-85 0 -131.5 56t-46.5 147
t46.5 147.5t131.5 56.5q71 0 131 -53l-36 -36q-44 39 -95 39q-64 0 -93 -42.5t-29 -111.5t29 -111t93 -42q52 0 95 38z" />
    <glyph glyph-name="ordfeminine" unicode="&#xaa;" horiz-adv-x="449" 
d="M365 319h-58v36q-42 -41 -111 -41q-74 0 -110 36q-30 32 -30 79q0 53 35.5 83.5t99.5 30.5h115v36q0 43 -22.5 63.5t-74.5 20.5q-37 0 -58.5 -9.5t-39.5 -34.5l-41 37q26 33 58.5 46.5t81.5 13.5q155 0 155 -132v-265zM306 458v40h-107q-84 0 -84 -67q0 -65 86 -65
q60 0 86 25q19 18 19 67z" />
    <glyph glyph-name="guillemotleft" unicode="&#xab;" horiz-adv-x="554" 
d="M250 58l-210 210l210 210v-90l-120 -120l120 -121v-89zM476 58l-210 210l210 210v-90l-121 -120l121 -121v-89z" />
    <glyph glyph-name="logicalnot" unicode="&#xac;" horiz-adv-x="522" 
d="M471 103h-67v137h-353v67h420v-204z" />
    <glyph glyph-name="uni00AD" unicode="&#xad;" horiz-adv-x="426" 
d="M350 236h-274v67h274v-67z" />
    <glyph glyph-name="registered" unicode="&#xae;" horiz-adv-x="881" 
d="M802 356q0 -150 -106 -256t-256 -106t-256 106t-106 256t106 256t256 106t256 -106t106 -256zM745 356q0 128 -89.5 218.5t-215.5 90.5t-215 -90.5t-89 -218.5t89 -218.5t215 -90.5t215.5 90.5t89.5 218.5zM592 158h-64l-91 162h-60v-162h-55v397h135q52 0 88.5 -34.5
t36.5 -84.5q0 -83 -85 -109zM526 436q0 30 -21 50t-54 20h-74v-139h74q33 0 54 19.5t21 49.5z" />
    <glyph glyph-name="macron" unicode="&#xaf;" horiz-adv-x="500" 
d="M99 613v57h301v-57h-301z" />
    <glyph glyph-name="degree" unicode="&#xb0;" horiz-adv-x="463" 
d="M396 557q0 -68 -48 -116t-116 -48t-116.5 48t-48.5 116t48.5 116t116.5 48t116 -48t48 -116zM335 557q0 45 -30 75.5t-74 30.5t-73.5 -30.5t-29.5 -75.5t30 -75.5t74 -30.5t73.5 30.5t29.5 75.5z" />
    <glyph glyph-name="plusminus" unicode="&#xb1;" horiz-adv-x="522" 
d="M470 289h-175v-177h-67v177h-176v67h176v175h67v-175h175v-67zM470 0h-418v67h418v-67z" />
    <glyph glyph-name="twosuperior" unicode="&#xb2;" horiz-adv-x="342" 
d="M294 285h-246v52l165 202q23 29 23 58q0 30 -17.5 48.5t-47.5 18.5q-28 0 -46.5 -16.5t-18.5 -50.5h-58q0 54 34.5 86.5t88.5 32.5q55 0 89 -32.5t34 -86.5q0 -44 -39 -92l-138 -168h177v-52z" />
    <glyph glyph-name="threesuperior" unicode="&#xb3;" horiz-adv-x="356" 
d="M308 405q0 -59 -36.5 -92t-92.5 -33q-55 0 -92 30.5t-39 88.5h58q1 -33 22 -50t51 -17q32 0 52 19.5t20 53.5t-19 53.5t-56 19.5h-9v50h9q34 0 51 18t17 50t-19 50t-47 18q-29 0 -47 -17t-20 -46h-57q3 53 38 84t86 31q54 0 88.5 -33t34.5 -86q0 -67 -54 -92
q61 -26 61 -100z" />
    <glyph glyph-name="acute" unicode="&#xb4;" horiz-adv-x="500" 
d="M375 747l-108 -153h-66l88 153h86z" />
    <glyph glyph-name="uni00B5" unicode="&#xb5;" horiz-adv-x="561" 
d="M471 0h-72v55q-53 -61 -138 -61q-66 0 -106 37v-251h-72v712h72v-303q0 -64 32 -97.5t89 -33.5t90 34t33 97v303h72v-492z" />
    <glyph glyph-name="paragraph" unicode="&#xb6;" horiz-adv-x="603" 
d="M500 -220h-72v864h-117v-864h-72v546q-87 0 -142 57.5t-55 134.5q0 83 58.5 138.5t158.5 55.5h241v-932z" />
    <glyph glyph-name="periodcentered" unicode="&#xb7;" horiz-adv-x="270" 
d="M182 223h-94v94h94v-94z" />
    <glyph glyph-name="cedilla" unicode="&#xb8;" horiz-adv-x="500" 
d="M313 -67l-59 -149h-79l71 149h67z" />
    <glyph glyph-name="onesuperior" unicode="&#xb9;" horiz-adv-x="261" 
d="M183 285h-57v363l-83 -73v66l83 71h57v-427z" />
    <glyph glyph-name="ordmasculine" unicode="&#xba;" horiz-adv-x="455" 
d="M387 515q0 -107 -48 -156q-44 -44 -112 -44t-112 44q-48 49 -48 156t48 156q45 45 112 45t112 -45q48 -49 48 -156zM328 515q0 88 -31 119q-28 28 -70 28t-70 -28q-30 -30 -30 -119q0 -88 30 -118q29 -29 70 -29t70 29q31 31 31 118z" />
    <glyph glyph-name="guillemotright" unicode="&#xbb;" horiz-adv-x="554" 
d="M514 268l-210 -210v89l120 121l-120 120v90zM288 268l-210 -210v89l121 121l-121 120v90z" />
    <glyph glyph-name="onequarter" unicode="&#xbc;" horiz-adv-x="777" 
d="M737 64h-47v-64h-56v64h-172v53l151 310h62l-150 -310h109v105h56v-105h47v-53zM566 712l-333 -712h-60l333 712h60zM183 285h-57v363l-83 -73v66l83 71h57v-427z" />
    <glyph glyph-name="onehalf" unicode="&#xbd;" horiz-adv-x="790" 
d="M742 0h-246v52l165 202q23 29 23 58q0 30 -17.5 48.5t-47.5 18.5q-28 0 -46.5 -16.5t-18.5 -50.5h-58q0 54 34.5 86.5t88.5 32.5q55 0 89 -32.5t34 -86.5q0 -44 -39 -92l-137 -168h176v-52zM554 712l-333 -712h-60l333 712h60zM183 285h-57v363l-83 -73v66l83 71h57v-427
z" />
    <glyph glyph-name="threequarters" unicode="&#xbe;" horiz-adv-x="822" 
d="M308 405q0 -59 -36.5 -92t-92.5 -33q-55 0 -92 30.5t-39 88.5h58q1 -33 22 -50t51 -17q32 0 52 19.5t20 53.5t-19 53.5t-56 19.5h-9v50h9q34 0 51 18t17 50t-19 50t-47 18q-29 0 -47 -17t-20 -46h-57q3 53 38 84t86 31q54 0 88.5 -33t34.5 -86q0 -67 -54 -92
q61 -26 61 -100zM782 64h-47v-64h-56v64h-172v53l151 310h62l-151 -310h110v105h56v-105h47v-53zM619 712l-334 -712h-60l334 712h60z" />
    <glyph glyph-name="questiondown" unicode="&#xbf;" horiz-adv-x="497" 
d="M421 -43q0 -77 -53.5 -130t-133.5 -53t-134 52t-54 131q0 53 46 120l82 118q18 27 18 58v40h72v-41q0 -48 -32 -94l-81 -116q-33 -49 -33 -85q0 -50 33 -84t83 -34q52 0 83.5 34.5t31.5 83.5h72zM270 408h-85v84h85v-84z" />
    <glyph glyph-name="Agrave" unicode="&#xc0;" horiz-adv-x="611" 
d="M599 0h-81l-57 161h-311l-57 -161h-81l262 712h64zM439 227l-132 376l-134 -376h266zM351 781h-66l-108 153h86z" />
    <glyph glyph-name="Aacute" unicode="&#xc1;" horiz-adv-x="611" 
d="M599 0h-81l-57 161h-311l-57 -161h-81l262 712h64zM439 227l-132 376l-134 -376h266zM427 934l-108 -153h-66l88 153h86z" />
    <glyph glyph-name="Acircumflex" unicode="&#xc2;" horiz-adv-x="611" 
d="M599 0h-81l-57 161h-311l-57 -161h-81l262 712h64zM439 227l-132 376l-134 -376h266zM461 781h-69l-90 104l-90 -104h-69l125 153h68z" />
    <glyph glyph-name="Atilde" unicode="&#xc3;" horiz-adv-x="611" 
d="M599 0h-81l-57 161h-311l-57 -161h-81l262 712h64zM439 227l-132 376l-134 -376h266zM459 844q-51 -50 -95 -50q-32 0 -71 23q-36 21 -56 21q-27 0 -59 -32l-37 36q51 51 95 51q34 0 71 -24q32 -20 56 -20q27 0 59 32z" />
    <glyph glyph-name="Adieresis" unicode="&#xc4;" horiz-adv-x="611" 
d="M599 0h-81l-57 161h-311l-57 -161h-81l262 712h64zM439 227l-132 376l-134 -376h266zM448 789h-72v89h72v-89zM236 789h-72v89h72v-89z" />
    <glyph glyph-name="Aring" unicode="&#xc5;" horiz-adv-x="611" 
d="M599 0h-81l-57 161h-311l-57 -161h-81l262 712h64zM439 227l-132 376l-134 -376h266zM420 867q0 -49 -34.5 -84t-83.5 -35t-83.5 35t-34.5 84t34.5 83.5t83.5 34.5t83.5 -34.5t34.5 -83.5zM371 867q0 28 -20 48t-49 20t-49 -20t-20 -48q0 -29 20.5 -49t48.5 -20t48.5 20
t20.5 49z" />
    <glyph glyph-name="AE" unicode="&#xc6;" horiz-adv-x="922" 
d="M867 0h-441v169h-247l-88 -169h-83l376 712h483v-68h-366v-253h312v-68h-312v-255h366v-68zM426 235v409l-214 -409h214z" />
    <glyph glyph-name="Ccedilla" unicode="&#xc7;" horiz-adv-x="637" 
d="M572 206q-17 -99 -84 -155.5t-163 -56.5q-108 0 -182 74q-46 46 -56.5 101.5t-10.5 186.5t10.5 186.5t56.5 101.5q74 74 182 74q97 0 163 -56t84 -156h-78q-14 66 -58.5 105t-110.5 39q-75 0 -123 -50q-32 -33 -41 -80t-9 -164t9 -164t41 -80q48 -50 123 -50
q66 0 111.5 39t59.5 105h76zM370 -67l-59 -149h-79l71 149h67z" />
    <glyph glyph-name="Egrave" unicode="&#xc8;" horiz-adv-x="600" 
d="M545 0h-442v712h442v-68h-366v-251h312v-68h-312v-257h366v-68zM362 781h-66l-108 153h86z" />
    <glyph glyph-name="Eacute" unicode="&#xc9;" horiz-adv-x="600" 
d="M545 0h-442v712h442v-68h-366v-251h312v-68h-312v-257h366v-68zM438 934l-108 -153h-66l88 153h86z" />
    <glyph glyph-name="Ecircumflex" unicode="&#xca;" horiz-adv-x="600" 
d="M545 0h-442v712h442v-68h-366v-251h312v-68h-312v-257h366v-68zM472 781h-69l-90 104l-90 -104h-69l125 153h68z" />
    <glyph glyph-name="Edieresis" unicode="&#xcb;" horiz-adv-x="600" 
d="M545 0h-442v712h442v-68h-366v-251h312v-68h-312v-257h366v-68zM455 789h-72v89h72v-89zM243 789h-72v89h72v-89z" />
    <glyph glyph-name="Igrave" unicode="&#xcc;" horiz-adv-x="282" 
d="M179 0h-76v712h76v-712zM179 781h-66l-108 153h86z" />
    <glyph glyph-name="Iacute" unicode="&#xcd;" horiz-adv-x="282" 
d="M179 0h-76v712h76v-712zM277 934l-108 -153h-66l88 153h86z" />
    <glyph glyph-name="Icircumflex" unicode="&#xce;" horiz-adv-x="282" 
d="M179 0h-76v712h76v-712zM299 781h-69l-90 104l-90 -104h-69l125 153h68z" />
    <glyph glyph-name="Idieresis" unicode="&#xcf;" horiz-adv-x="282" 
d="M179 0h-76v712h76v-712zM283 789h-72v89h72v-89zM71 789h-72v89h72v-89z" />
    <glyph glyph-name="Eth" unicode="&#xd0;" horiz-adv-x="687" 
d="M611 356q0 -122 -8 -166.5t-36 -84.5q-75 -105 -211 -105h-239v330h-78v59h78v323h245q135 0 205 -107q30 -46 37 -88t7 -161zM535 352q0 107 -6 147t-30 74q-53 72 -151 72h-154v-256h161v-59h-161v-263h154q106 0 156 74q21 32 26 68t5 143z" />
    <glyph glyph-name="Ntilde" unicode="&#xd1;" horiz-adv-x="732" 
d="M629 0h-72l-378 571v-571h-76v712h72l378 -569v569h76v-712zM523 844q-51 -50 -95 -50q-32 0 -71 23q-36 21 -56 21q-27 0 -59 -32l-37 36q51 51 95 51q34 0 71 -24q32 -20 56 -20q27 0 59 32z" />
    <glyph glyph-name="Ograve" unicode="&#xd2;" horiz-adv-x="650" 
d="M574 356q0 -131 -10.5 -186.5t-56.5 -101.5q-74 -74 -182 -74t-182 74q-46 46 -56.5 101.5t-10.5 186.5t10.5 186.5t56.5 101.5q74 74 182 74t182 -74q46 -46 56.5 -101.5t10.5 -186.5zM498 356q0 117 -9 163.5t-41 79.5q-49 51 -123 51t-123 -51q-32 -33 -41 -79.5
t-9 -163.5t9 -163.5t41 -79.5q49 -51 123 -51t123 51q32 33 41 79.5t9 163.5zM374 781h-66l-108 153h86z" />
    <glyph glyph-name="Oacute" unicode="&#xd3;" horiz-adv-x="650" 
d="M574 356q0 -131 -10.5 -186.5t-56.5 -101.5q-74 -74 -182 -74t-182 74q-46 46 -56.5 101.5t-10.5 186.5t10.5 186.5t56.5 101.5q74 74 182 74t182 -74q46 -46 56.5 -101.5t10.5 -186.5zM498 356q0 117 -9 163.5t-41 79.5q-49 51 -123 51t-123 -51q-32 -33 -41 -79.5
t-9 -163.5t9 -163.5t41 -79.5q49 -51 123 -51t123 51q32 33 41 79.5t9 163.5zM450 934l-108 -153h-66l88 153h86z" />
    <glyph glyph-name="Ocircumflex" unicode="&#xd4;" horiz-adv-x="650" 
d="M574 356q0 -131 -10.5 -186.5t-56.5 -101.5q-74 -74 -182 -74t-182 74q-46 46 -56.5 101.5t-10.5 186.5t10.5 186.5t56.5 101.5q74 74 182 74t182 -74q46 -46 56.5 -101.5t10.5 -186.5zM498 356q0 117 -9 163.5t-41 79.5q-49 51 -123 51t-123 -51q-32 -33 -41 -79.5
t-9 -163.5t9 -163.5t41 -79.5q49 -51 123 -51t123 51q32 33 41 79.5t9 163.5zM484 781h-69l-90 104l-90 -104h-69l125 153h68z" />
    <glyph glyph-name="Otilde" unicode="&#xd5;" horiz-adv-x="650" 
d="M574 356q0 -131 -10.5 -186.5t-56.5 -101.5q-74 -74 -182 -74t-182 74q-46 46 -56.5 101.5t-10.5 186.5t10.5 186.5t56.5 101.5q74 74 182 74t182 -74q46 -46 56.5 -101.5t10.5 -186.5zM498 356q0 117 -9 163.5t-41 79.5q-49 51 -123 51t-123 -51q-32 -33 -41 -79.5
t-9 -163.5t9 -163.5t41 -79.5q49 -51 123 -51t123 51q32 33 41 79.5t9 163.5zM482 844q-51 -50 -95 -50q-32 0 -71 23q-36 21 -56 21q-27 0 -59 -32l-37 36q51 51 95 51q33 0 71 -24q32 -20 56 -20q27 0 59 32z" />
    <glyph glyph-name="Odieresis" unicode="&#xd6;" horiz-adv-x="650" 
d="M574 356q0 -131 -10.5 -186.5t-56.5 -101.5q-74 -74 -182 -74t-182 74q-46 46 -56.5 101.5t-10.5 186.5t10.5 186.5t56.5 101.5q74 74 182 74t182 -74q46 -46 56.5 -101.5t10.5 -186.5zM498 356q0 117 -9 163.5t-41 79.5q-49 51 -123 51t-123 -51q-32 -33 -41 -79.5
t-9 -163.5t9 -163.5t41 -79.5q49 -51 123 -51t123 51q32 33 41 79.5t9 163.5zM467 789h-72v89h72v-89zM255 789h-72v89h72v-89z" />
    <glyph glyph-name="multiply" unicode="&#xd7;" horiz-adv-x="522" 
d="M457 119l-45 -45l-151 151l-151 -151l-45 45l151 151l-151 151l45 45l151 -152l151 152l45 -45l-152 -151z" />
    <glyph glyph-name="Oslash" unicode="&#xd8;" horiz-adv-x="652" 
d="M574 356q0 -131 -10.5 -186.5t-56.5 -101.5q-74 -74 -182 -74q-70 0 -126 32l-33 -70h-65l50 104l-8 8q-46 46 -56.5 101.5t-10.5 186.5t10.5 186.5t56.5 101.5q74 74 182 74q70 0 125 -31l34 69h65l-50 -104l8 -8q46 -46 56.5 -101.5t10.5 -186.5zM421 621
q-45 29 -96 29q-74 0 -123 -51q-32 -33 -41 -79.5t-9 -163.5q0 -104 6.5 -149.5t28.5 -75.5zM497 356q0 105 -6 150t-28 75l-234 -490q45 -29 96 -29q74 0 123 51q32 33 40.5 79t8.5 164z" />
    <glyph glyph-name="Ugrave" unicode="&#xd9;" horiz-adv-x="683" 
d="M590 235q0 -106 -70.5 -173.5t-178.5 -67.5t-178 67.5t-70 173.5v477h76v-471q0 -81 47 -130t125 -49t125.5 49t47.5 130v471h76v-477zM390 781h-66l-108 153h86z" />
    <glyph glyph-name="Uacute" unicode="&#xda;" horiz-adv-x="683" 
d="M590 235q0 -106 -70.5 -173.5t-178.5 -67.5t-178 67.5t-70 173.5v477h76v-471q0 -81 47 -130t125 -49t125.5 49t47.5 130v471h76v-477zM466 934l-108 -153h-66l88 153h86z" />
    <glyph glyph-name="Ucircumflex" unicode="&#xdb;" horiz-adv-x="683" 
d="M590 235q0 -106 -70.5 -173.5t-178.5 -67.5t-178 67.5t-70 173.5v477h76v-471q0 -81 47 -130t125 -49t125.5 49t47.5 130v471h76v-477zM500 781h-69l-90 104l-90 -104h-69l125 153h68z" />
    <glyph glyph-name="Udieresis" unicode="&#xdc;" horiz-adv-x="683" 
d="M590 235q0 -106 -70.5 -173.5t-178.5 -67.5t-178 67.5t-70 173.5v477h76v-471q0 -81 47 -130t125 -49t125.5 49t47.5 130v471h76v-477zM483 789h-72v89h72v-89zM271 789h-72v89h72v-89z" />
    <glyph glyph-name="Yacute" unicode="&#xdd;" horiz-adv-x="514" 
d="M506 712l-210 -418v-294h-76v294l-212 418h82l168 -341l166 341h82zM382 934l-108 -153h-66l88 153h86z" />
    <glyph glyph-name="Thorn" unicode="&#xde;" horiz-adv-x="642" 
d="M588 359q0 -95 -61 -152t-159 -57h-189v-150h-76v712h76v-143h189q98 0 159 -57.5t61 -152.5zM512 359q0 69 -41 105t-110 36h-182v-282h182q69 0 110 36t41 105z" />
    <glyph glyph-name="germandbls" unicode="&#xdf;" horiz-adv-x="556" 
d="M484 141q0 -69 -39 -105t-103 -36h-54v62h40q35 0 59 20q25 20 25 67v169q0 41 -21 62t-59 21h-44v60h36q39 0 63.5 24.5t24.5 66.5q0 46 -31 75q-30 29 -94 29q-124 0 -124 -135v-521h-73v524q0 93 54 144t147 51q85 0 139 -42t54 -124q0 -78 -63 -119
q36 -19 49.5 -45.5t13.5 -74.5v-173z" />
    <glyph glyph-name="agrave" unicode="&#xe0;" horiz-adv-x="526" 
d="M441 0h-72v47q-30 -30 -61 -41.5t-81 -11.5q-95 0 -139 45q-37 37 -37 100q0 66 44.5 104t125.5 38h148v47q0 55 -30 81.5t-96 26.5q-47 0 -74.5 -12.5t-49.5 -43.5l-49 45q32 41 72 57t102 16q197 0 197 -164v-334zM369 174v53h-138q-110 0 -110 -87q0 -84 113 -84
q76 0 110 33q25 24 25 85zM301 594h-66l-108 153h86z" />
    <glyph glyph-name="aacute" unicode="&#xe1;" horiz-adv-x="526" 
d="M441 0h-72v47q-30 -30 -61 -41.5t-81 -11.5q-95 0 -139 45q-37 37 -37 100q0 66 44.5 104t125.5 38h148v47q0 55 -30 81.5t-96 26.5q-47 0 -74.5 -12.5t-49.5 -43.5l-49 45q32 41 72 57t102 16q197 0 197 -164v-334zM369 174v53h-138q-110 0 -110 -87q0 -84 113 -84
q76 0 110 33q25 24 25 85zM377 747l-108 -153h-66l88 153h86z" />
    <glyph glyph-name="acircumflex" unicode="&#xe2;" horiz-adv-x="526" 
d="M441 0h-72v47q-30 -30 -61 -41.5t-81 -11.5q-95 0 -139 45q-37 37 -37 100q0 66 44.5 104t125.5 38h148v47q0 55 -30 81.5t-96 26.5q-47 0 -74.5 -12.5t-49.5 -43.5l-49 45q32 41 72 57t102 16q197 0 197 -164v-334zM369 174v53h-138q-110 0 -110 -87q0 -84 113 -84
q76 0 110 33q25 24 25 85zM411 594h-69l-90 104l-90 -104h-69l125 153h68z" />
    <glyph glyph-name="atilde" unicode="&#xe3;" horiz-adv-x="526" 
d="M441 0h-72v47q-30 -30 -61 -41.5t-81 -11.5q-95 0 -139 45q-37 37 -37 100q0 66 44.5 104t125.5 38h148v47q0 55 -30 81.5t-96 26.5q-47 0 -74.5 -12.5t-49.5 -43.5l-49 45q32 41 72 57t102 16q197 0 197 -164v-334zM369 174v53h-138q-110 0 -110 -87q0 -84 113 -84
q76 0 110 33q25 24 25 85zM409 658q-50 -51 -95 -51q-30 0 -71 24q-35 20 -56 20q-27 0 -59 -32l-37 36q51 51 95 51q33 0 71 -24q35 -20 56 -20q27 0 59 32z" />
    <glyph glyph-name="adieresis" unicode="&#xe4;" horiz-adv-x="526" 
d="M441 0h-72v47q-30 -30 -61 -41.5t-81 -11.5q-95 0 -139 45q-37 37 -37 100q0 66 44.5 104t125.5 38h148v47q0 55 -30 81.5t-96 26.5q-47 0 -74.5 -12.5t-49.5 -43.5l-49 45q32 41 72 57t102 16q197 0 197 -164v-334zM369 174v53h-138q-110 0 -110 -87q0 -84 113 -84
q76 0 110 33q25 24 25 85zM394 602h-72v89h72v-89zM182 602h-72v89h72v-89z" />
    <glyph glyph-name="aring" unicode="&#xe5;" horiz-adv-x="526" 
d="M441 0h-72v47q-30 -30 -61 -41.5t-81 -11.5q-95 0 -139 45q-37 37 -37 100q0 66 44.5 104t125.5 38h148v47q0 55 -30 81.5t-96 26.5q-47 0 -74.5 -12.5t-49.5 -43.5l-49 45q32 41 72 57t102 16q197 0 197 -164v-334zM369 174v53h-138q-110 0 -110 -87q0 -84 113 -84
q76 0 110 33q25 24 25 85zM370 687q0 -49 -34.5 -84t-83.5 -35t-83.5 35t-34.5 84t34.5 83.5t83.5 34.5t83.5 -34.5t34.5 -83.5zM321 687q0 28 -20 48t-49 20t-49 -20t-20 -48q0 -29 20.5 -49t48.5 -20t48.5 20t20.5 49z" />
    <glyph glyph-name="ae" unicode="&#xe6;" horiz-adv-x="835" 
d="M773 227h-333q0 -81 38 -125.5t108 -44.5q41 0 69.5 13t58.5 43l50 -43q-40 -40 -81 -58t-101 -18q-122 0 -175 85q-33 -47 -74 -66t-106 -19q-95 0 -139 45q-37 37 -37 100q0 66 44.5 104t125.5 38h148v47q0 55 -30 81.5t-96 26.5q-47 0 -74.5 -12.5t-49.5 -43.5l-49 45
q32 41 72 57t102 16q132 0 173 -77q52 77 154 77q95 0 148.5 -64t53.5 -174v-33zM369 174v53h-138q-110 0 -110 -87q0 -84 113 -84q76 0 110 33q25 24 25 85zM701 281q-3 52 -15 82q-14 34 -45 54t-70 20t-70 -20t-45 -54q-14 -33 -16 -82h261z" />
    <glyph glyph-name="ccedilla" unicode="&#xe7;" horiz-adv-x="490" 
d="M443 67q-38 -41 -74 -57t-88 -16q-97 0 -157.5 65t-60.5 187t60.5 187t157.5 65q52 0 88 -16t74 -57l-49 -46q-28 31 -53 43t-60 12q-75 0 -114 -56q-32 -45 -32 -132t32 -132q39 -56 114 -56q35 0 60 12.5t53 43.5zM313 -67l-59 -149h-79l71 149h67z" />
    <glyph glyph-name="egrave" unicode="&#xe8;" 
d="M467 227h-332q0 -81 37.5 -125.5t107.5 -44.5q42 0 70.5 13t58.5 43l49 -43q-40 -40 -80 -58t-100 -18q-101 0 -158 62.5t-57 189.5q0 119 54 185.5t148 66.5q95 0 148.5 -64t53.5 -174v-33zM395 281q-3 52 -15 82q-14 34 -45 54t-70 20t-70 -20t-45 -54q-12 -30 -15 -82
h260zM317 594h-66l-108 153h86z" />
    <glyph glyph-name="eacute" unicode="&#xe9;" 
d="M467 227h-332q0 -81 37.5 -125.5t107.5 -44.5q42 0 70.5 13t58.5 43l49 -43q-40 -40 -80 -58t-100 -18q-101 0 -158 62.5t-57 189.5q0 119 54 185.5t148 66.5q95 0 148.5 -64t53.5 -174v-33zM395 281q-3 52 -15 82q-14 34 -45 54t-70 20t-70 -20t-45 -54q-12 -30 -15 -82
h260zM393 747l-108 -153h-66l88 153h86z" />
    <glyph glyph-name="ecircumflex" unicode="&#xea;" 
d="M467 227h-332q0 -81 37.5 -125.5t107.5 -44.5q42 0 70.5 13t58.5 43l49 -43q-40 -40 -80 -58t-100 -18q-101 0 -158 62.5t-57 189.5q0 119 54 185.5t148 66.5q95 0 148.5 -64t53.5 -174v-33zM395 281q-3 52 -15 82q-14 34 -45 54t-70 20t-70 -20t-45 -54q-12 -30 -15 -82
h260zM427 594h-69l-90 104l-90 -104h-69l125 153h68z" />
    <glyph glyph-name="edieresis" unicode="&#xeb;" 
d="M467 227h-332q0 -81 37.5 -125.5t107.5 -44.5q42 0 70.5 13t58.5 43l49 -43q-40 -40 -80 -58t-100 -18q-101 0 -158 62.5t-57 189.5q0 119 54 185.5t148 66.5q95 0 148.5 -64t53.5 -174v-33zM395 281q-3 52 -15 82q-14 34 -45 54t-70 20t-70 -20t-45 -54q-12 -30 -15 -82
h260zM409 602h-72v89h72v-89zM197 602h-72v89h72v-89z" />
    <glyph glyph-name="igrave" unicode="&#xec;" horiz-adv-x="253" 
d="M162 0h-72v492h72v-492zM163 594h-66l-108 153h86z" />
    <glyph glyph-name="iacute" unicode="&#xed;" horiz-adv-x="253" 
d="M162 0h-72v492h72v-492zM264 747l-108 -153h-66l88 153h86z" />
    <glyph glyph-name="icircumflex" unicode="&#xee;" horiz-adv-x="253" 
d="M162 0h-72v492h72v-492zM288 594h-69l-90 104l-90 -104h-69l125 153h68z" />
    <glyph glyph-name="idieresis" unicode="&#xef;" horiz-adv-x="253" 
d="M162 0h-72v492h72v-492zM269 602h-72v89h72v-89zM57 602h-72v89h72v-89z" />
    <glyph glyph-name="eth" unicode="&#xf0;" 
d="M465 244q0 -135 -60 -195q-53 -55 -140 -55t-140 55q-59 59 -59 195t59 195q46 47 122 52q49 2 75 -10l-58 99h-116v52h88l-47 82h75l47 -82h82v-52h-54l63 -111q39 -68 51 -113t12 -112zM393 244q0 112 -39 151q-36 36 -89 36q-52 0 -88 -36q-39 -39 -39 -151
q0 -111 39 -150q36 -36 88 -36q53 0 89 36q39 39 39 150z" />
    <glyph glyph-name="ntilde" unicode="&#xf1;" horiz-adv-x="562" 
d="M477 0h-72v303q0 64 -32 97.5t-89 33.5t-89.5 -34t-32.5 -97v-303h-72v492h72v-54q52 60 138 60q80 0 126 -46q51 -50 51 -137v-315zM442 658q-50 -51 -95 -51q-30 0 -71 24q-35 20 -56 20q-27 0 -59 -32l-37 36q51 51 95 51q33 0 71 -24q35 -20 56 -20q27 0 59 32z" />
    <glyph glyph-name="ograve" unicode="&#xf2;" 
d="M466 246q0 -135 -60 -196q-56 -56 -141 -56t-141 56q-60 61 -60 196t60 196q56 56 141 56t141 -56q60 -61 60 -196zM394 246q0 113 -39 152q-36 36 -90 36q-53 0 -89 -36q-40 -40 -40 -152t40 -152q36 -36 89 -36q54 0 90 36q39 39 39 152zM304 594h-66l-108 153h86z" />
    <glyph glyph-name="oacute" unicode="&#xf3;" 
d="M466 246q0 -135 -60 -196q-56 -56 -141 -56t-141 56q-60 61 -60 196t60 196q56 56 141 56t141 -56q60 -61 60 -196zM394 246q0 113 -39 152q-36 36 -90 36q-53 0 -89 -36q-40 -40 -40 -152t40 -152q36 -36 89 -36q54 0 90 36q39 39 39 152zM390 747l-108 -153h-66l88 153
h86z" />
    <glyph glyph-name="ocircumflex" unicode="&#xf4;" 
d="M466 246q0 -135 -60 -196q-56 -56 -141 -56t-141 56q-60 61 -60 196t60 196q56 56 141 56t141 -56q60 -61 60 -196zM394 246q0 113 -39 152q-36 36 -90 36q-53 0 -89 -36q-40 -40 -40 -152t40 -152q36 -36 89 -36q54 0 90 36q39 39 39 152zM424 594h-69l-90 104l-90 -104
h-69l125 153h68z" />
    <glyph glyph-name="otilde" unicode="&#xf5;" 
d="M466 246q0 -135 -60 -196q-56 -56 -141 -56t-141 56q-60 61 -60 196t60 196q56 56 141 56t141 -56q60 -61 60 -196zM394 246q0 113 -39 152q-36 36 -90 36q-53 0 -89 -36q-40 -40 -40 -152t40 -152q36 -36 89 -36q54 0 90 36q39 39 39 152zM422 658q-50 -51 -95 -51
q-30 0 -71 24q-35 20 -56 20q-27 0 -59 -32l-37 36q51 51 95 51q33 0 71 -24q35 -20 56 -20q27 0 59 32z" />
    <glyph glyph-name="odieresis" unicode="&#xf6;" 
d="M466 246q0 -135 -60 -196q-56 -56 -141 -56t-141 56q-60 61 -60 196t60 196q56 56 141 56t141 -56q60 -61 60 -196zM394 246q0 113 -39 152q-36 36 -90 36q-53 0 -89 -36q-40 -40 -40 -152t40 -152q36 -36 89 -36q54 0 90 36q39 39 39 152zM407 602h-72v89h72v-89z
M195 602h-72v89h72v-89z" />
    <glyph glyph-name="divide" unicode="&#xf7;" horiz-adv-x="522" 
d="M471 236h-420v67h420v-67zM304 49h-86v86h86v-86zM304 404h-86v86h86v-86z" />
    <glyph glyph-name="oslash" unicode="&#xf8;" 
d="M466 246q0 -135 -60 -196q-56 -56 -141 -56q-59 0 -105 27l-38 -65h-57l57 96q-58 60 -58 194q0 135 60 196q56 56 141 56q59 0 105 -27l39 65h56l-57 -96q58 -60 58 -194zM394 246q0 94 -24 133l-177 -299q31 -22 72 -22q54 0 90 36q39 39 39 152zM337 413
q-30 21 -72 21q-53 0 -89 -36q-40 -40 -40 -152q0 -92 25 -133z" />
    <glyph glyph-name="ugrave" unicode="&#xf9;" horiz-adv-x="562" 
d="M472 0h-71v55q-53 -61 -139 -61q-81 0 -127 46q-50 49 -50 138v314h72v-303q0 -64 31.5 -97.5t88.5 -33.5t90 34t33 97v303h72v-492zM327 594h-66l-108 153h86z" />
    <glyph glyph-name="uacute" unicode="&#xfa;" horiz-adv-x="562" 
d="M472 0h-71v55q-53 -61 -139 -61q-81 0 -127 46q-50 49 -50 138v314h72v-303q0 -64 31.5 -97.5t88.5 -33.5t90 34t33 97v303h72v-492zM403 747l-108 -153h-66l88 153h86z" />
    <glyph glyph-name="ucircumflex" unicode="&#xfb;" horiz-adv-x="562" 
d="M472 0h-71v55q-53 -61 -139 -61q-81 0 -127 46q-50 49 -50 138v314h72v-303q0 -64 31.5 -97.5t88.5 -33.5t90 34t33 97v303h72v-492zM437 594h-69l-90 104l-90 -104h-69l125 153h68z" />
    <glyph glyph-name="udieresis" unicode="&#xfc;" horiz-adv-x="562" 
d="M472 0h-71v55q-53 -61 -139 -61q-81 0 -127 46q-50 49 -50 138v314h72v-303q0 -64 31.5 -97.5t88.5 -33.5t90 34t33 97v303h72v-492zM419 602h-72v89h72v-89zM207 602h-72v89h72v-89z" />
    <glyph glyph-name="yacute" unicode="&#xfd;" horiz-adv-x="445" 
d="M436 492l-224 -611q-14 -39 -35 -58q-35 -34 -96 -34h-31v64h22q36 0 52.5 13t28.5 48l35 96l-177 482h78l135 -395l134 395h78zM349 747l-108 -153h-66l88 153h86z" />
    <glyph glyph-name="thorn" unicode="&#xfe;" horiz-adv-x="546" 
d="M481 246q0 -149 -60 -209q-43 -43 -120 -43q-89 0 -139 64v-278h-72v932h72v-277q49 63 139 63q77 0 120 -43q60 -60 60 -209zM409 246q0 41 -4.5 71t-16.5 58.5t-38 43.5t-64 15t-64 -15t-38.5 -43.5t-17 -58.5t-4.5 -71t4.5 -71t17 -58.5t38.5 -43.5t64 -15t64 15
t38 43.5t16.5 58.5t4.5 71z" />
    <glyph glyph-name="ydieresis" unicode="&#xff;" horiz-adv-x="445" 
d="M436 492l-224 -611q-14 -39 -35 -58q-35 -34 -96 -34h-31v64h22q36 0 52.5 13t28.5 48l35 96l-177 482h78l135 -395l134 395h78zM366 602h-72v89h72v-89zM154 602h-72v89h72v-89z" />
    <glyph glyph-name="Amacron" unicode="&#x100;" horiz-adv-x="611" 
d="M599 0h-81l-57 161h-311l-57 -161h-81l262 712h64zM439 227l-132 376l-134 -376h266zM154 798v57h301v-57h-301z" />
    <glyph glyph-name="amacron" unicode="&#x101;" horiz-adv-x="526" 
d="M441 0h-72v47q-30 -30 -61 -41.5t-81 -11.5q-95 0 -139 45q-37 37 -37 100q0 66 44.5 104t125.5 38h148v47q0 55 -30 81.5t-96 26.5q-47 0 -74.5 -12.5t-49.5 -43.5l-49 45q32 41 72 57t102 16q197 0 197 -164v-334zM369 174v53h-138q-110 0 -110 -87q0 -84 113 -84
q76 0 110 33q25 24 25 85zM414 602h-302v57h302v-57z" />
    <glyph glyph-name="Abreve" unicode="&#x102;" horiz-adv-x="611" 
d="M599 0h-81l-57 161h-311l-57 -161h-81l262 712h64zM439 227l-132 376l-134 -376h266zM472 928q-12 -139 -165 -139t-165 139h56q5 -40 34 -61.5t75 -21.5t75 21.5t34 61.5h56z" />
    <glyph glyph-name="abreve" unicode="&#x103;" horiz-adv-x="526" 
d="M441 0h-72v47q-30 -30 -61 -41.5t-81 -11.5q-95 0 -139 45q-37 37 -37 100q0 66 44.5 104t125.5 38h148v47q0 55 -30 81.5t-96 26.5q-47 0 -74.5 -12.5t-49.5 -43.5l-49 45q32 41 72 57t102 16q197 0 197 -164v-334zM369 174v53h-138q-110 0 -110 -87q0 -84 113 -84
q76 0 110 33q25 24 25 85zM409 709q-12 -139 -165 -139t-165 139h56q5 -40 34 -61.5t75 -21.5t75 21.5t34 61.5h56z" />
    <glyph glyph-name="Aogonek" unicode="&#x104;" horiz-adv-x="611" 
d="M599 0h-81l-57 161h-311l-57 -161h-81l262 712h64zM439 227l-132 376l-134 -376h266zM585 -67l-59 -149h-79l71 149h67z" />
    <glyph glyph-name="aogonek" unicode="&#x105;" horiz-adv-x="526" 
d="M441 0h-72v47q-30 -30 -61 -41.5t-81 -11.5q-95 0 -139 45q-37 37 -37 100q0 66 44.5 104t125.5 38h148v47q0 55 -30 81.5t-96 26.5q-47 0 -74.5 -12.5t-49.5 -43.5l-49 45q32 41 72 57t102 16q197 0 197 -164v-334zM369 174v53h-138q-110 0 -110 -87q0 -84 113 -84
q76 0 110 33q25 24 25 85zM436 -67l-59 -149h-79l71 149h67z" />
    <glyph glyph-name="Cacute" unicode="&#x106;" horiz-adv-x="637" 
d="M572 206q-17 -99 -84 -155.5t-163 -56.5q-108 0 -182 74q-46 46 -56.5 101.5t-10.5 186.5t10.5 186.5t56.5 101.5q74 74 182 74q97 0 163 -56t84 -156h-78q-14 66 -58.5 105t-110.5 39q-75 0 -123 -50q-32 -33 -41 -80t-9 -164t9 -164t41 -80q48 -50 123 -50
q66 0 111.5 39t59.5 105h76zM443 934l-108 -153h-66l88 153h86z" />
    <glyph glyph-name="cacute" unicode="&#x107;" horiz-adv-x="490" 
d="M443 67q-38 -41 -74 -57t-88 -16q-97 0 -157.5 65t-60.5 187t60.5 187t157.5 65q52 0 88 -16t74 -57l-49 -46q-28 31 -53 43t-60 12q-75 0 -114 -56q-32 -45 -32 -132t32 -132q39 -56 114 -56q35 0 60 12.5t53 43.5zM391 747l-108 -153h-66l88 153h86z" />
    <glyph glyph-name="Ccircumflex" unicode="&#x108;" horiz-adv-x="637" 
d="M572 206q-17 -99 -84 -155.5t-163 -56.5q-108 0 -182 74q-46 46 -56.5 101.5t-10.5 186.5t10.5 186.5t56.5 101.5q74 74 182 74q97 0 163 -56t84 -156h-78q-14 66 -58.5 105t-110.5 39q-75 0 -123 -50q-32 -33 -41 -80t-9 -164t9 -164t41 -80q48 -50 123 -50
q66 0 111.5 39t59.5 105h76zM484 781h-69l-90 104l-90 -104h-69l125 153h68z" />
    <glyph glyph-name="ccircumflex" unicode="&#x109;" horiz-adv-x="490" 
d="M443 67q-38 -41 -74 -57t-88 -16q-97 0 -157.5 65t-60.5 187t60.5 187t157.5 65q52 0 88 -16t74 -57l-49 -46q-28 31 -53 43t-60 12q-75 0 -114 -56q-32 -45 -32 -132t32 -132q39 -56 114 -56q35 0 60 12.5t53 43.5zM439 594h-69l-90 104l-90 -104h-69l125 153h68z" />
    <glyph glyph-name="Cdotaccent" unicode="&#x10a;" horiz-adv-x="637" 
d="M572 206q-17 -99 -84 -155.5t-163 -56.5q-108 0 -182 74q-46 46 -56.5 101.5t-10.5 186.5t10.5 186.5t56.5 101.5q74 74 182 74q97 0 163 -56t84 -156h-78q-14 66 -58.5 105t-110.5 39q-75 0 -123 -50q-32 -33 -41 -80t-9 -164t9 -164t41 -80q48 -50 123 -50
q66 0 111.5 39t59.5 105h76zM286 797v76h75v-76h-75z" />
    <glyph glyph-name="cdotaccent" unicode="&#x10b;" horiz-adv-x="490" 
d="M443 67q-38 -41 -74 -57t-88 -16q-97 0 -157.5 65t-60.5 187t60.5 187t157.5 65q52 0 88 -16t74 -57l-49 -46q-28 31 -53 43t-60 12q-75 0 -114 -56q-32 -45 -32 -132t32 -132q39 -56 114 -56q35 0 60 12.5t53 43.5zM242 610v77h75v-77h-75z" />
    <glyph glyph-name="Ccaron" unicode="&#x10c;" horiz-adv-x="637" 
d="M572 206q-17 -99 -84 -155.5t-163 -56.5q-108 0 -182 74q-46 46 -56.5 101.5t-10.5 186.5t10.5 186.5t56.5 101.5q74 74 182 74q97 0 163 -56t84 -156h-78q-14 66 -58.5 105t-110.5 39q-75 0 -123 -50q-32 -33 -41 -80t-9 -164t9 -164t41 -80q48 -50 123 -50
q66 0 111.5 39t59.5 105h76zM477 934l-125 -153h-68l-125 153h69l90 -105l90 105h69z" />
    <glyph glyph-name="ccaron" unicode="&#x10d;" horiz-adv-x="490" 
d="M443 67q-38 -41 -74 -57t-88 -16q-97 0 -157.5 65t-60.5 187t60.5 187t157.5 65q52 0 88 -16t74 -57l-49 -46q-28 31 -53 43t-60 12q-75 0 -114 -56q-32 -45 -32 -132t32 -132q39 -56 114 -56q35 0 60 12.5t53 43.5zM440 747l-125 -153h-68l-125 153h69l90 -105l90 105
h69z" />
    <glyph glyph-name="Dcaron" unicode="&#x10e;" horiz-adv-x="673" 
d="M597 364q0 -134 -13 -189q-17 -69 -57 -109q-66 -66 -180 -66h-244v712h244q114 0 180 -66q21 -21 35.5 -50.5t21 -50t10 -63t3.5 -55.5v-63zM521 364q0 62 -1 90.5t-12 71t-34 66.5q-51 52 -140 52h-155v-576h155q89 0 140 52q23 24 34 71t12 77.5t1 95.5zM495 934
l-125 -153h-68l-125 153h69l90 -105l90 105h69z" />
    <glyph glyph-name="dcaron" unicode="&#x10f;" horiz-adv-x="545" 
d="M455 0h-71v59q-50 -65 -140 -65q-77 0 -120 43q-60 60 -60 209t60 209q43 43 120 43q90 0 139 -63v277h72v-712zM383 246q0 41 -4.5 71t-16.5 58.5t-38 43.5t-64 15t-64 -15t-38.5 -43.5t-17 -58.5t-4.5 -71t4.5 -71t17 -58.5t38.5 -43.5t64 -15t64 15t38 43.5t16.5 58.5
t4.5 71zM626 719l-51 -152h-58l39 152h70z" />
    <glyph glyph-name="Dcroat" unicode="&#x110;" horiz-adv-x="687" 
d="M611 356q0 -122 -8 -166.5t-36 -84.5q-75 -105 -211 -105h-239v330h-78v59h78v323h245q135 0 205 -107q30 -46 37 -88t7 -161zM535 352q0 107 -6 147t-30 74q-53 72 -151 72h-154v-256h161v-59h-161v-263h154q106 0 156 74q21 32 26 68t5 143z" />
    <glyph glyph-name="dcroat" unicode="&#x111;" horiz-adv-x="545" 
d="M523 572h-68v-572h-71v59q-50 -65 -140 -65q-77 0 -120 43q-60 60 -60 209t60 209q43 43 120 43q90 0 139 -63v137h-82v48h82v92h72v-92h68v-48zM383 246q0 41 -4.5 71t-16.5 58.5t-38 43.5t-64 15t-64 -15t-38.5 -43.5t-17 -58.5t-4.5 -71t4.5 -71t17 -58.5t38.5 -43.5
t64 -15t64 15t38 43.5t16.5 58.5t4.5 71z" />
    <glyph glyph-name="Emacron" unicode="&#x112;" horiz-adv-x="600" 
d="M545 0h-442v712h442v-68h-366v-251h312v-68h-312v-257h366v-68zM161 798v57h301v-57h-301z" />
    <glyph glyph-name="emacron" unicode="&#x113;" 
d="M467 227h-332q0 -81 37.5 -125.5t107.5 -44.5q42 0 70.5 13t58.5 43l49 -43q-40 -40 -80 -58t-100 -18q-101 0 -158 62.5t-57 189.5q0 119 54 185.5t148 66.5q95 0 148.5 -64t53.5 -174v-33zM395 281q-3 52 -15 82q-14 34 -45 54t-70 20t-70 -20t-45 -54q-12 -30 -15 -82
h260zM415 602h-302v57h302v-57z" />
    <glyph glyph-name="Edotaccent" unicode="&#x116;" horiz-adv-x="600" 
d="M545 0h-442v712h442v-68h-366v-251h312v-68h-312v-257h366v-68zM274 797v76h75v-76h-75z" />
    <glyph glyph-name="edotaccent" unicode="&#x117;" 
d="M467 227h-332q0 -81 37.5 -125.5t107.5 -44.5q42 0 70.5 13t58.5 43l49 -43q-40 -40 -80 -58t-100 -18q-101 0 -158 62.5t-57 189.5q0 119 54 185.5t148 66.5q95 0 148.5 -64t53.5 -174v-33zM395 281q-3 52 -15 82q-14 34 -45 54t-70 20t-70 -20t-45 -54q-12 -30 -15 -82
h260zM226 610v77h75v-77h-75z" />
    <glyph glyph-name="Eogonek" unicode="&#x118;" horiz-adv-x="600" 
d="M545 0h-442v712h442v-68h-366v-251h312v-68h-312v-257h366v-68zM545 -67l-59 -149h-79l71 149h67z" />
    <glyph glyph-name="eogonek" unicode="&#x119;" 
d="M467 227h-332q0 -81 37.5 -125.5t107.5 -44.5q42 0 70.5 13t58.5 43l49 -43q-40 -40 -80 -58t-100 -18q-101 0 -158 62.5t-57 189.5q0 119 54 185.5t148 66.5q95 0 148.5 -64t53.5 -174v-33zM395 281q-3 52 -15 82q-14 34 -45 54t-70 20t-70 -20t-45 -54q-12 -30 -15 -82
h260zM369 -67l-59 -149h-79l71 149h67z" />
    <glyph glyph-name="Ecaron" unicode="&#x11a;" horiz-adv-x="600" 
d="M545 0h-442v712h442v-68h-366v-251h312v-68h-312v-257h366v-68zM470 934l-125 -153h-68l-125 153h69l90 -105l90 105h69z" />
    <glyph glyph-name="ecaron" unicode="&#x11b;" 
d="M467 227h-332q0 -81 37.5 -125.5t107.5 -44.5q42 0 70.5 13t58.5 43l49 -43q-40 -40 -80 -58t-100 -18q-101 0 -158 62.5t-57 189.5q0 119 54 185.5t148 66.5q95 0 148.5 -64t53.5 -174v-33zM395 281q-3 52 -15 82q-14 34 -45 54t-70 20t-70 -20t-45 -54q-12 -30 -15 -82
h260zM424 747l-125 -153h-68l-125 153h69l90 -105l90 105h69z" />
    <glyph glyph-name="Gcircumflex" unicode="&#x11c;" horiz-adv-x="650" 
d="M576 260q0 -119 -61 -184q-76 -82 -190 -82q-108 0 -182 74q-46 46 -56.5 101.5t-10.5 186.5t10.5 186.5t56.5 101.5q74 74 182 74q100 0 166.5 -58.5t82.5 -154.5h-76q-15 68 -61 106.5t-112 38.5q-74 0 -123 -51q-32 -33 -41 -79.5t-9 -163.5t9 -164t41 -80
q48 -50 123 -50q85 0 135 61q40 48 40 129v54h-175v67h251v-113zM484 781h-69l-90 104l-90 -104h-69l125 153h68z" />
    <glyph glyph-name="gcircumflex" unicode="&#x11d;" horiz-adv-x="543" 
d="M453 -15q0 -93 -55 -152t-150 -59q-54 0 -90.5 15t-76.5 51l47 46q30 -27 54 -38t64 -11q68 0 101.5 42t33.5 109v77q-50 -64 -138 -64q-75 0 -119 44q-60 60 -60 205t60 205q43 43 120 43q89 0 138 -64v58h71v-507zM381 250q0 39 -4.5 68t-16.5 57.5t-37.5 43.5
t-63.5 15t-64 -15t-38 -43.5t-16.5 -57.5t-4.5 -68t4.5 -68t16.5 -57.5t38 -43.5t64 -15t63.5 15t37.5 43.5t16.5 57.5t4.5 68zM418 594h-69l-90 104l-90 -104h-69l125 153h68z" />
    <glyph glyph-name="Gbreve" unicode="&#x11e;" horiz-adv-x="650" 
d="M576 260q0 -119 -61 -184q-76 -82 -190 -82q-108 0 -182 74q-46 46 -56.5 101.5t-10.5 186.5t10.5 186.5t56.5 101.5q74 74 182 74q100 0 166.5 -58.5t82.5 -154.5h-76q-15 68 -61 106.5t-112 38.5q-74 0 -123 -51q-32 -33 -41 -79.5t-9 -163.5t9 -164t41 -80
q48 -50 123 -50q85 0 135 61q40 48 40 129v54h-175v67h251v-113zM490 928q-12 -139 -165 -139t-165 139h56q5 -40 34 -61.5t75 -21.5t75 21.5t34 61.5h56z" />
    <glyph glyph-name="gbreve" unicode="&#x11f;" horiz-adv-x="543" 
d="M453 -15q0 -93 -55 -152t-150 -59q-54 0 -90.5 15t-76.5 51l47 46q30 -27 54 -38t64 -11q68 0 101.5 42t33.5 109v77q-50 -64 -138 -64q-75 0 -119 44q-60 60 -60 205t60 205q43 43 120 43q89 0 138 -64v58h71v-507zM381 250q0 39 -4.5 68t-16.5 57.5t-37.5 43.5
t-63.5 15t-64 -15t-38 -43.5t-16.5 -57.5t-4.5 -68t4.5 -68t16.5 -57.5t38 -43.5t64 -15t63.5 15t37.5 43.5t16.5 57.5t4.5 68zM424 709q-12 -139 -165 -139t-165 139h56q5 -40 34 -61.5t75 -21.5t75 21.5t34 61.5h56z" />
    <glyph glyph-name="Gdotaccent" unicode="&#x120;" horiz-adv-x="650" 
d="M576 260q0 -119 -61 -184q-76 -82 -190 -82q-108 0 -182 74q-46 46 -56.5 101.5t-10.5 186.5t10.5 186.5t56.5 101.5q74 74 182 74q100 0 166.5 -58.5t82.5 -154.5h-76q-15 68 -61 106.5t-112 38.5q-74 0 -123 -51q-32 -33 -41 -79.5t-9 -163.5t9 -164t41 -80
q48 -50 123 -50q85 0 135 61q40 48 40 129v54h-175v67h251v-113zM286 797v76h75v-76h-75z" />
    <glyph glyph-name="gdotaccent" unicode="&#x121;" horiz-adv-x="543" 
d="M453 -15q0 -93 -55 -152t-150 -59q-54 0 -90.5 15t-76.5 51l47 46q30 -27 54 -38t64 -11q68 0 101.5 42t33.5 109v77q-50 -64 -138 -64q-75 0 -119 44q-60 60 -60 205t60 205q43 43 120 43q89 0 138 -64v58h71v-507zM381 250q0 39 -4.5 68t-16.5 57.5t-37.5 43.5
t-63.5 15t-64 -15t-38 -43.5t-16.5 -57.5t-4.5 -68t4.5 -68t16.5 -57.5t38 -43.5t64 -15t63.5 15t37.5 43.5t16.5 57.5t4.5 68zM220 610v77h75v-77h-75z" />
    <glyph glyph-name="Gcommaaccent" unicode="&#x122;" horiz-adv-x="650" 
d="M576 260q0 -119 -61 -184q-76 -82 -190 -82q-108 0 -182 74q-46 46 -56.5 101.5t-10.5 186.5t10.5 186.5t56.5 101.5q74 74 182 74q100 0 166.5 -58.5t82.5 -154.5h-76q-15 68 -61 106.5t-112 38.5q-74 0 -123 -51q-32 -33 -41 -79.5t-9 -163.5t9 -164t41 -80
q48 -50 123 -50q85 0 135 61q40 48 40 129v54h-175v67h251v-113zM329 -216h-78l71 149h66z" />
    <glyph glyph-name="gcommaaccent" unicode="&#x123;" horiz-adv-x="543" 
d="M453 -15q0 -93 -55 -152t-150 -59q-54 0 -90.5 15t-76.5 51l47 46q30 -27 54 -38t64 -11q68 0 101.5 42t33.5 109v77q-50 -64 -138 -64q-75 0 -119 44q-60 60 -60 205t60 205q43 43 120 43q89 0 138 -64v58h71v-507zM381 250q0 39 -4.5 68t-16.5 57.5t-37.5 43.5
t-63.5 15t-64 -15t-38 -43.5t-16.5 -57.5t-4.5 -68t4.5 -68t16.5 -57.5t38 -43.5t64 -15t63.5 15t37.5 43.5t16.5 57.5t4.5 68zM396 747l-108 -153h-66l88 153h86z" />
    <glyph glyph-name="Hcircumflex" unicode="&#x124;" horiz-adv-x="696" 
d="M593 0h-76v325h-338v-325h-76v712h76v-319h338v319h76v-712zM507 781h-69l-90 104l-90 -104h-69l125 153h68z" />
    <glyph glyph-name="hcircumflex" unicode="&#x125;" horiz-adv-x="562" 
d="M477 0h-72v304q0 63 -31.5 96.5t-88.5 33.5t-90 -33.5t-33 -96.5v-304h-72v712h72v-274q53 60 138 60q83 0 130 -49t47 -133v-316zM286 780h-69l-90 104l-90 -104h-69l125 153h68z" />
    <glyph glyph-name="Hbar" unicode="&#x126;" horiz-adv-x="718" 
d="M678 515h-74v-515h-76v325h-338v-325h-76v515h-74v58h74v139h76v-139h338v139h76v-139h74v-58zM528 393v122h-338v-122h338z" />
    <glyph glyph-name="hbar" unicode="&#x127;" horiz-adv-x="562" 
d="M477 0h-72v304q0 63 -31.5 96.5t-88.5 33.5t-90 -33.5t-33 -96.5v-304h-72v572h-60v48h60v92h72v-92h124v-48h-124v-134q53 60 138 60q83 0 130 -49t47 -133v-316z" />
    <glyph glyph-name="Imacron" unicode="&#x12a;" horiz-adv-x="282" 
d="M179 0h-76v712h76v-712zM-9 798v57h301v-57h-301z" />
    <glyph glyph-name="imacron" unicode="&#x12b;" horiz-adv-x="253" 
d="M162 0h-72v492h72v-492zM278 602h-302v57h302v-57z" />
    <glyph glyph-name="Iogonek" unicode="&#x12e;" horiz-adv-x="282" 
d="M179 0h-76v712h76v-712zM170 -67l-59 -149h-79l71 149h67z" />
    <glyph glyph-name="iogonek" unicode="&#x12f;" horiz-adv-x="253" 
d="M162 0h-72v492h72v-492zM167 632h-81v81h81v-81zM158 -67l-59 -149h-79l71 149h67z" />
    <glyph glyph-name="Idotaccent" unicode="&#x130;" horiz-adv-x="282" 
d="M179 0h-76v712h76v-712zM103 797v76h75v-76h-75z" />
    <glyph glyph-name="dotlessi" unicode="&#x131;" horiz-adv-x="253" 
d="M162 0h-72v492h72v-492z" />
    <glyph glyph-name="Jcircumflex" unicode="&#x134;" horiz-adv-x="501" 
d="M408 216q0 -102 -61.5 -162t-160.5 -60t-163 64l51 51q23 -23 47.5 -35t64.5 -12q70 0 108 42.5t38 121.5v486h76v-496zM529 781h-69l-90 104l-90 -104h-69l125 153h68z" />
    <glyph glyph-name="jcircumflex" unicode="&#x135;" horiz-adv-x="253" 
d="M162 -89q0 -59 -31.5 -95.5t-93.5 -36.5h-52v63h39q36 0 51 17.5t15 54.5v575h72v-578zM285 594h-69l-90 104l-90 -104h-69l125 153h68z" />
    <glyph glyph-name="Kcommaaccent" unicode="&#x136;" horiz-adv-x="650" 
d="M636 0h-90l-217 379l-150 -180v-199h-76v712h76v-409l332 409h93l-224 -275zM328 -216h-78l71 149h66z" />
    <glyph glyph-name="kcommaaccent" unicode="&#x137;" horiz-adv-x="536" 
d="M503 0h-89l-156 252l-96 -110v-142h-72v712h72v-476l222 256h90l-167 -188zM271 -216h-78l71 149h66z" />
    <glyph glyph-name="Lacute" unicode="&#x139;" horiz-adv-x="573" 
d="M543 0h-440v712h76v-644h364v-68zM320 934l-108 -153h-66l88 153h86z" />
    <glyph glyph-name="lacute" unicode="&#x13a;" horiz-adv-x="297" 
d="M265 0h-52q-62 0 -93.5 36t-31.5 95v581h72v-578q0 -37 15 -54.5t51 -17.5h39v-62zM274 934l-108 -153h-66l88 153h86z" />
    <glyph glyph-name="Lcommaaccent" unicode="&#x13b;" horiz-adv-x="573" 
d="M543 0h-440v712h76v-644h364v-68zM289 -216h-78l71 149h66z" />
    <glyph glyph-name="lcommaaccent" unicode="&#x13c;" horiz-adv-x="297" 
d="M265 0h-52q-62 0 -93.5 36t-31.5 95v581h72v-578q0 -37 15 -54.5t51 -17.5h39v-62zM152 -216h-78l71 149h66z" />
    <glyph glyph-name="Lcaron" unicode="&#x13d;" horiz-adv-x="573" 
d="M543 0h-440v712h76v-644h364v-68zM405 712l-51 -152h-58l39 152h70z" />
    <glyph glyph-name="lcaron" unicode="&#x13e;" horiz-adv-x="297" 
d="M265 0h-52q-62 0 -93.5 36t-31.5 95v581h72v-578q0 -37 15 -54.5t51 -17.5h39v-62zM331 719l-51 -152h-58l39 152h70z" />
    <glyph glyph-name="Lslash" unicode="&#x141;" horiz-adv-x="582" 
d="M552 0h-440v289l-73 -46v67l73 46v356h77v-308l154 98v-66l-154 -98v-270h363v-68z" />
    <glyph glyph-name="lslash" unicode="&#x142;" horiz-adv-x="315" 
d="M278 0h-52q-62 0 -94 36t-32 95v211l-63 -39v62l63 39v308h72v-264l81 50v-62l-81 -50v-252q0 -37 15 -54.5t51 -17.5h40v-62z" />
    <glyph glyph-name="Nacute" unicode="&#x143;" horiz-adv-x="732" 
d="M629 0h-72l-378 571v-571h-76v712h72l378 -569v569h76v-712zM491 934l-108 -153h-66l88 153h86z" />
    <glyph glyph-name="nacute" unicode="&#x144;" horiz-adv-x="562" 
d="M477 0h-72v303q0 64 -32 97.5t-89 33.5t-89.5 -34t-32.5 -97v-303h-72v492h72v-54q52 60 138 60q80 0 126 -46q51 -50 51 -137v-315zM406 747l-108 -153h-66l88 153h86z" />
    <glyph glyph-name="Ncommaaccent" unicode="&#x145;" horiz-adv-x="732" 
d="M629 0h-72l-378 571v-571h-76v712h72l378 -569v569h76v-712zM359 -216h-78l71 149h66z" />
    <glyph glyph-name="ncommaaccent" unicode="&#x146;" horiz-adv-x="562" 
d="M477 0h-72v303q0 64 -32 97.5t-89 33.5t-89.5 -34t-32.5 -97v-303h-72v492h72v-54q52 60 138 60q80 0 126 -46q51 -50 51 -137v-315zM284 -216h-78l71 149h66z" />
    <glyph glyph-name="Ncaron" unicode="&#x147;" horiz-adv-x="732" 
d="M629 0h-72l-378 571v-571h-76v712h72l378 -569v569h76v-712zM525 934l-125 -153h-68l-125 153h69l90 -105l90 105h69z" />
    <glyph glyph-name="ncaron" unicode="&#x148;" horiz-adv-x="562" 
d="M477 0h-72v303q0 64 -32 97.5t-89 33.5t-89.5 -34t-32.5 -97v-303h-72v492h72v-54q52 60 138 60q80 0 126 -46q51 -50 51 -137v-315zM440 747l-125 -153h-68l-125 153h69l90 -105l90 105h69z" />
    <glyph glyph-name="Omacron" unicode="&#x14c;" horiz-adv-x="650" 
d="M574 356q0 -131 -10.5 -186.5t-56.5 -101.5q-74 -74 -182 -74t-182 74q-46 46 -56.5 101.5t-10.5 186.5t10.5 186.5t56.5 101.5q74 74 182 74t182 -74q46 -46 56.5 -101.5t10.5 -186.5zM498 356q0 117 -9 163.5t-41 79.5q-49 51 -123 51t-123 -51q-32 -33 -41 -79.5
t-9 -163.5t9 -163.5t41 -79.5q49 -51 123 -51t123 51q32 33 41 79.5t9 163.5zM173 798v57h301v-57h-301z" />
    <glyph glyph-name="omacron" unicode="&#x14d;" 
d="M466 246q0 -135 -60 -196q-56 -56 -141 -56t-141 56q-60 61 -60 196t60 196q56 56 141 56t141 -56q60 -61 60 -196zM394 246q0 113 -39 152q-36 36 -90 36q-53 0 -89 -36q-40 -40 -40 -152t40 -152q36 -36 89 -36q54 0 90 36q39 39 39 152zM416 602h-302v57h302v-57z" />
    <glyph glyph-name="Ohungarumlaut" unicode="&#x150;" horiz-adv-x="650" 
d="M574 356q0 -131 -10.5 -186.5t-56.5 -101.5q-74 -74 -182 -74t-182 74q-46 46 -56.5 101.5t-10.5 186.5t10.5 186.5t56.5 101.5q74 74 182 74t182 -74q46 -46 56.5 -101.5t10.5 -186.5zM498 356q0 117 -9 163.5t-41 79.5q-49 51 -123 51t-123 -51q-32 -33 -41 -79.5
t-9 -163.5t9 -163.5t41 -79.5q49 -51 123 -51t123 51q32 33 41 79.5t9 163.5zM379 934l-108 -153h-66l89 153h85zM542 934l-109 -153h-65l89 153h85z" />
    <glyph glyph-name="ohungarumlaut" unicode="&#x151;" 
d="M466 246q0 -135 -60 -196q-56 -56 -141 -56t-141 56q-60 61 -60 196t60 196q56 56 141 56t141 -56q60 -61 60 -196zM394 246q0 113 -39 152q-36 36 -90 36q-53 0 -89 -36q-40 -40 -40 -152t40 -152q36 -36 89 -36q54 0 90 36q39 39 39 152zM319 747l-108 -153h-66l89 153
h85zM482 747l-109 -153h-65l89 153h85z" />
    <glyph glyph-name="OE" unicode="&#x152;" horiz-adv-x="989" 
d="M933 0h-436v74q-65 -80 -173 -80q-107 0 -181 74q-46 46 -56.5 102t-10.5 186t10.5 186t56.5 102q74 74 181 74q108 0 173 -80v74h434v-67h-357v-254h304v-64h-305v-260h360v-67zM497 356q0 118 -8.5 164t-40.5 79q-49 51 -123 51t-123 -51q-32 -33 -41 -79.5t-9 -163.5
t9 -163.5t41 -79.5q49 -51 123 -51t123 51q32 33 40.5 79t8.5 164z" />
    <glyph glyph-name="oe" unicode="&#x153;" horiz-adv-x="861" 
d="M798 227h-332q0 -81 37.5 -125.5t107.5 -44.5q42 0 70.5 13t58.5 43l49 -43q-40 -40 -80 -58t-100 -18q-124 0 -177 95q-23 -45 -67 -70t-100 -25q-85 0 -141 56q-60 61 -60 196t60 196q56 56 141 56q56 0 100.5 -25t67.5 -70q51 95 163 95q95 0 148.5 -64t53.5 -174v-33
zM394 246q0 113 -39 152q-36 36 -90 36q-53 0 -89 -36q-40 -40 -40 -152t40 -152q36 -36 89 -36q54 0 90 36q39 39 39 152zM727 281q-2 49 -16 82q-14 34 -45 54t-70 20t-70 -20t-45 -54q-12 -30 -15 -82h261z" />
    <glyph glyph-name="Racute" unicode="&#x154;" horiz-adv-x="656" 
d="M601 0h-89l-162 316h-171v-316h-76v712h273q94 0 152.5 -53.5t58.5 -144.5q0 -76 -42 -126t-113 -65zM511 513q0 63 -39 97t-103 34h-190v-261h190q65 0 103.5 33.5t38.5 96.5zM453 934l-108 -153h-66l88 153h86z" />
    <glyph glyph-name="racute" unicode="&#x155;" horiz-adv-x="421" 
d="M418 452l-53 -54q-20 20 -38.5 28t-46.5 8q-53 0 -85.5 -37.5t-32.5 -94.5v-302h-72v492h72v-60q20 31 57.5 48.5t80.5 17.5q72 0 118 -46zM336 747l-108 -153h-66l88 153h86z" />
    <glyph glyph-name="Rcommaaccent" unicode="&#x156;" horiz-adv-x="656" 
d="M601 0h-89l-162 316h-171v-316h-76v712h273q94 0 152.5 -53.5t58.5 -144.5q0 -76 -42 -126t-113 -65zM511 513q0 63 -39 97t-103 34h-190v-261h190q65 0 103.5 33.5t38.5 96.5zM331 -216h-78l71 149h66z" />
    <glyph glyph-name="rcommaaccent" unicode="&#x157;" horiz-adv-x="421" 
d="M418 452l-53 -54q-20 20 -38.5 28t-46.5 8q-53 0 -85.5 -37.5t-32.5 -94.5v-302h-72v492h72v-60q20 31 57.5 48.5t80.5 17.5q72 0 118 -46zM136 -216h-78l71 149h66z" />
    <glyph glyph-name="Rcaron" unicode="&#x158;" horiz-adv-x="656" 
d="M601 0h-89l-162 316h-171v-316h-76v712h273q94 0 152.5 -53.5t58.5 -144.5q0 -76 -42 -126t-113 -65zM511 513q0 63 -39 97t-103 34h-190v-261h190q65 0 103.5 33.5t38.5 96.5zM487 934l-125 -153h-68l-125 153h69l90 -105l90 105h69z" />
    <glyph glyph-name="rcaron" unicode="&#x159;" horiz-adv-x="421" 
d="M418 452l-53 -54q-20 20 -38.5 28t-46.5 8q-53 0 -85.5 -37.5t-32.5 -94.5v-302h-72v492h72v-60q20 31 57.5 48.5t80.5 17.5q72 0 118 -46zM390 747l-125 -153h-68l-125 153h69l90 -105l90 105h69z" />
    <glyph glyph-name="Sacute" unicode="&#x15a;" horiz-adv-x="588" 
d="M532 196q0 -93 -67 -147.5t-179 -54.5q-80 0 -137 22t-107 72l52 52q43 -43 87.5 -60.5t106.5 -17.5q78 0 123 35t45 97q0 59 -34 89q-17 15 -35 21.5t-58 12.5l-83 13q-85 14 -131 54q-54 48 -54 133q0 91 61.5 146t166.5 55q68 0 117 -18t95 -60l-49 -49
q-67 61 -166 61q-70 0 -110 -36t-40 -96q0 -54 32 -82q33 -29 96 -39l78 -12q87 -13 130 -50q60 -51 60 -141zM419 934l-108 -153h-66l88 153h86z" />
    <glyph glyph-name="sacute" unicode="&#x15b;" horiz-adv-x="496" 
d="M445 144q0 -70 -54.5 -110t-145.5 -40q-128 0 -202 71l48 48q54 -57 153 -57q62 0 96.5 22t34.5 65q0 65 -82 72l-81 7q-147 12 -147 132q0 66 50.5 105t130.5 39q112 0 177 -53l-47 -47q-51 39 -131 39q-53 0 -81.5 -21.5t-28.5 -59.5q0 -65 86 -72l79 -7
q70 -6 107.5 -37t37.5 -96zM373 747l-108 -153h-66l88 153h86z" />
    <glyph glyph-name="Scircumflex" unicode="&#x15c;" horiz-adv-x="588" 
d="M532 196q0 -93 -67 -147.5t-179 -54.5q-80 0 -137 22t-107 72l52 52q43 -43 87.5 -60.5t106.5 -17.5q78 0 123 35t45 97q0 59 -34 89q-17 15 -35 21.5t-58 12.5l-83 13q-85 14 -131 54q-54 48 -54 133q0 91 61.5 146t166.5 55q68 0 117 -18t95 -60l-49 -49
q-67 61 -166 61q-70 0 -110 -36t-40 -96q0 -54 32 -82q33 -29 96 -39l78 -12q87 -13 130 -50q60 -51 60 -141zM448 781h-69l-90 104l-90 -104h-69l125 153h68z" />
    <glyph glyph-name="scircumflex" unicode="&#x15d;" horiz-adv-x="496" 
d="M445 144q0 -70 -54.5 -110t-145.5 -40q-128 0 -202 71l48 48q54 -57 153 -57q62 0 96.5 22t34.5 65q0 65 -82 72l-81 7q-147 12 -147 132q0 66 50.5 105t130.5 39q112 0 177 -53l-47 -47q-51 39 -131 39q-53 0 -81.5 -21.5t-28.5 -59.5q0 -65 86 -72l79 -7
q70 -6 107.5 -37t37.5 -96zM405 594h-69l-90 104l-90 -104h-69l125 153h68z" />
    <glyph glyph-name="Scedilla" unicode="&#x15e;" horiz-adv-x="588" 
d="M532 196q0 -93 -67 -147.5t-179 -54.5q-80 0 -137 22t-107 72l52 52q43 -43 87.5 -60.5t106.5 -17.5q78 0 123 35t45 97q0 59 -34 89q-17 15 -35 21.5t-58 12.5l-83 13q-85 14 -131 54q-54 48 -54 133q0 91 61.5 146t166.5 55q68 0 117 -18t95 -60l-49 -49
q-67 61 -166 61q-70 0 -110 -36t-40 -96q0 -54 32 -82q33 -29 96 -39l78 -12q87 -13 130 -50q60 -51 60 -141zM357 -67l-59 -149h-79l71 149h67z" />
    <glyph glyph-name="scedilla" unicode="&#x15f;" horiz-adv-x="496" 
d="M445 144q0 -70 -54.5 -110t-145.5 -40q-128 0 -202 71l48 48q54 -57 153 -57q62 0 96.5 22t34.5 65q0 65 -82 72l-81 7q-147 12 -147 132q0 66 50.5 105t130.5 39q112 0 177 -53l-47 -47q-51 39 -131 39q-53 0 -81.5 -21.5t-28.5 -59.5q0 -65 86 -72l79 -7
q70 -6 107.5 -37t37.5 -96zM311 -67l-59 -149h-79l71 149h67z" />
    <glyph glyph-name="Scaron" unicode="&#x160;" horiz-adv-x="588" 
d="M532 196q0 -93 -67 -147.5t-179 -54.5q-80 0 -137 22t-107 72l52 52q43 -43 87.5 -60.5t106.5 -17.5q78 0 123 35t45 97q0 59 -34 89q-17 15 -35 21.5t-58 12.5l-83 13q-85 14 -131 54q-54 48 -54 133q0 91 61.5 146t166.5 55q68 0 117 -18t95 -60l-49 -49
q-67 61 -166 61q-70 0 -110 -36t-40 -96q0 -54 32 -82q33 -29 96 -39l78 -12q87 -13 130 -50q60 -51 60 -141zM448 934l-125 -153h-68l-125 153h69l90 -105l90 105h69z" />
    <glyph glyph-name="scaron" unicode="&#x161;" horiz-adv-x="496" 
d="M445 144q0 -70 -54.5 -110t-145.5 -40q-128 0 -202 71l48 48q54 -57 153 -57q62 0 96.5 22t34.5 65q0 65 -82 72l-81 7q-147 12 -147 132q0 66 50.5 105t130.5 39q112 0 177 -53l-47 -47q-51 39 -131 39q-53 0 -81.5 -21.5t-28.5 -59.5q0 -65 86 -72l79 -7
q70 -6 107.5 -37t37.5 -96zM405 747l-125 -153h-68l-125 153h69l90 -105l90 105h69z" />
    <glyph glyph-name="Tcommaaccent" unicode="&#x162;" horiz-adv-x="548" 
d="M518 644h-206v-644h-76v644h-206v68h488v-68zM278 -216h-78l71 149h66z" />
    <glyph glyph-name="tcommaaccent" unicode="&#x163;" horiz-adv-x="332" 
d="M279 0h-51q-61 0 -93.5 37t-32.5 95v302h-62v55h62v154h72v-154h105v-55h-105v-300q0 -72 67 -72h38v-62zM169 -216h-78l71 149h66z" />
    <glyph glyph-name="Tcaron" unicode="&#x164;" horiz-adv-x="548" 
d="M518 644h-206v-644h-76v644h-206v68h488v-68zM433 934l-125 -153h-68l-125 153h69l90 -105l90 105h69z" />
    <glyph glyph-name="tcaron" unicode="&#x165;" horiz-adv-x="332" 
d="M279 0h-51q-61 0 -93.5 37t-32.5 95v302h-62v55h62v154h72v-154h105v-55h-105v-300q0 -72 67 -72h38v-62zM336 719l-51 -152h-58l39 152h70z" />
    <glyph glyph-name="Umacron" unicode="&#x16a;" horiz-adv-x="683" 
d="M590 235q0 -106 -70.5 -173.5t-178.5 -67.5t-178 67.5t-70 173.5v477h76v-471q0 -81 47 -130t125 -49t125.5 49t47.5 130v471h76v-477zM190 798v57h301v-57h-301z" />
    <glyph glyph-name="umacron" unicode="&#x16b;" horiz-adv-x="562" 
d="M472 0h-71v55q-53 -61 -139 -61q-81 0 -127 46q-50 49 -50 138v314h72v-303q0 -64 31.5 -97.5t88.5 -33.5t90 34t33 97v303h72v-492zM431 602h-302v57h302v-57z" />
    <glyph glyph-name="Ubreve" unicode="&#x16c;" horiz-adv-x="683" 
d="M590 235q0 -106 -70.5 -173.5t-178.5 -67.5t-178 67.5t-70 173.5v477h76v-471q0 -81 47 -130t125 -49t125.5 49t47.5 130v471h76v-477zM506 928q-12 -139 -165 -139t-165 139h56q5 -40 34 -61.5t75 -21.5t75 21.5t34 61.5h56z" />
    <glyph glyph-name="ubreve" unicode="&#x16d;" horiz-adv-x="562" 
d="M472 0h-71v55q-53 -61 -139 -61q-81 0 -127 46q-50 49 -50 138v314h72v-303q0 -64 31.5 -97.5t88.5 -33.5t90 34t33 97v303h72v-492zM442 729q-12 -139 -165 -139t-165 139h56q5 -40 34 -61.5t75 -21.5t75 21.5t34 61.5h56z" />
    <glyph glyph-name="Uring" unicode="&#x16e;" horiz-adv-x="683" 
d="M590 235q0 -106 -70.5 -173.5t-178.5 -67.5t-178 67.5t-70 173.5v477h76v-471q0 -81 47 -130t125 -49t125.5 49t47.5 130v471h76v-477zM459 874q0 -49 -34.5 -84t-83.5 -35t-83.5 35t-34.5 84t34.5 83.5t83.5 34.5t83.5 -34.5t34.5 -83.5zM410 874q0 28 -20 48t-49 20
t-49 -20t-20 -48t20 -48.5t49 -20.5t49 20.5t20 48.5z" />
    <glyph glyph-name="uring" unicode="&#x16f;" horiz-adv-x="562" 
d="M472 0h-71v55q-53 -61 -139 -61q-81 0 -127 46q-50 49 -50 138v314h72v-303q0 -64 31.5 -97.5t88.5 -33.5t90 34t33 97v303h72v-492zM399 687q0 -49 -34.5 -84t-83.5 -35t-83.5 35t-34.5 84t34.5 83.5t83.5 34.5t83.5 -34.5t34.5 -83.5zM350 687q0 28 -20 48t-49 20
t-49 -20t-20 -48q0 -29 20 -49t49 -20t49 20t20 49z" />
    <glyph glyph-name="Uhungarumlaut" unicode="&#x170;" horiz-adv-x="683" 
d="M590 235q0 -106 -70.5 -173.5t-178.5 -67.5t-178 67.5t-70 173.5v477h76v-471q0 -81 47 -130t125 -49t125.5 49t47.5 130v471h76v-477zM395 934l-108 -153h-66l89 153h85zM558 934l-109 -153h-65l89 153h85z" />
    <glyph glyph-name="uhungarumlaut" unicode="&#x171;" horiz-adv-x="562" 
d="M472 0h-71v55q-53 -61 -139 -61q-81 0 -127 46q-50 49 -50 138v314h72v-303q0 -64 31.5 -97.5t88.5 -33.5t90 34t33 97v303h72v-492zM335 747l-108 -153h-66l89 153h85zM498 747l-109 -153h-65l89 153h85z" />
    <glyph glyph-name="Uogonek" unicode="&#x172;" horiz-adv-x="683" 
d="M590 235q0 -106 -70.5 -173.5t-178.5 -67.5t-178 67.5t-70 173.5v477h76v-471q0 -81 47 -130t125 -49t125.5 49t47.5 130v471h76v-477zM478 -67l-59 -149h-79l71 149h67z" />
    <glyph glyph-name="uogonek" unicode="&#x173;" horiz-adv-x="562" 
d="M472 0h-71v55q-53 -61 -139 -61q-81 0 -127 46q-50 49 -50 138v314h72v-303q0 -64 31.5 -97.5t88.5 -33.5t90 34t33 97v303h72v-492zM468 -67l-59 -149h-79l71 149h67z" />
    <glyph glyph-name="Ydieresis" unicode="&#x178;" horiz-adv-x="514" 
d="M506 712l-210 -418v-294h-76v294l-212 418h82l168 -341l166 341h82zM399 789h-72v89h72v-89zM187 789h-72v89h72v-89z" />
    <glyph glyph-name="Zacute" unicode="&#x179;" horiz-adv-x="556" 
d="M499 0h-442v72l356 572h-342v68h428v-64l-359 -580h359v-68zM403 934l-108 -153h-66l88 153h86z" />
    <glyph glyph-name="zacute" unicode="&#x17a;" horiz-adv-x="459" 
d="M407 0h-357v62l274 366h-259v64h342v-61l-275 -367h275v-64zM355 747l-108 -153h-66l88 153h86z" />
    <glyph glyph-name="Zdotaccent" unicode="&#x17b;" horiz-adv-x="556" 
d="M499 0h-442v72l356 572h-342v68h428v-64l-359 -580h359v-68zM239 797v76h75v-76h-75z" />
    <glyph glyph-name="zdotaccent" unicode="&#x17c;" horiz-adv-x="459" 
d="M407 0h-357v62l274 366h-259v64h342v-61l-275 -367h275v-64zM192 610v77h75v-77h-75z" />
    <glyph glyph-name="Zcaron" unicode="&#x17d;" horiz-adv-x="556" 
d="M499 0h-442v72l356 572h-342v68h428v-64l-359 -580h359v-68zM443 934l-125 -153h-68l-125 153h69l90 -105l90 105h69z" />
    <glyph glyph-name="zcaron" unicode="&#x17e;" horiz-adv-x="459" 
d="M407 0h-357v62l274 366h-259v64h342v-61l-275 -367h275v-64zM395 747l-125 -153h-68l-125 153h69l90 -105l90 105h69z" />
    <glyph glyph-name="florin" unicode="&#x192;" horiz-adv-x="403" 
d="M373 652h-50q-66 0 -79 -72l-34 -196h105v-54h-115l-97 -550h-72l97 550h-98v54h108l34 198q10 58 49.5 95t99.5 37h52v-62z" />
    <glyph glyph-name="Scommaaccent" unicode="&#x218;" horiz-adv-x="588" 
d="M532 196q0 -93 -67 -147.5t-179 -54.5q-80 0 -137 22t-107 72l52 52q43 -43 87.5 -60.5t106.5 -17.5q78 0 123 35t45 97q0 59 -34 89q-17 15 -35 21.5t-58 12.5l-83 13q-85 14 -131 54q-54 48 -54 133q0 91 61.5 146t166.5 55q68 0 117 -18t95 -60l-49 -49
q-67 61 -166 61q-70 0 -110 -36t-40 -96q0 -54 32 -82q33 -29 96 -39l78 -12q87 -13 130 -50q60 -51 60 -141zM283 -216h-78l71 149h66z" />
    <glyph glyph-name="scommaaccent" unicode="&#x219;" horiz-adv-x="496" 
d="M445 144q0 -70 -54.5 -110t-145.5 -40q-128 0 -202 71l48 48q54 -57 153 -57q62 0 96.5 22t34.5 65q0 65 -82 72l-81 7q-147 12 -147 132q0 66 50.5 105t130.5 39q112 0 177 -53l-47 -47q-51 39 -131 39q-53 0 -81.5 -21.5t-28.5 -59.5q0 -65 86 -72l79 -7
q70 -6 107.5 -37t37.5 -96zM239 -216h-78l71 149h66z" />
    <glyph glyph-name="uni021A" unicode="&#x21a;" horiz-adv-x="548" 
d="M518 644h-206v-644h-76v644h-206v68h488v-68zM283 -216h-78l71 149h66z" />
    <glyph glyph-name="uni021B" unicode="&#x21b;" horiz-adv-x="332" 
d="M279 0h-51q-61 0 -93.5 37t-32.5 95v302h-62v55h62v154h72v-154h105v-55h-105v-300q0 -72 67 -72h38v-62zM175 -216h-78l71 149h66z" />
    <glyph glyph-name="dotlessj" unicode="&#x237;" horiz-adv-x="253" 
d="M162 -89q0 -59 -31.5 -95.5t-93.5 -36.5h-52v63h39q36 0 51 17.5t15 54.5v575h72v-578z" />
    <glyph glyph-name="circumflex" unicode="&#x2c6;" horiz-adv-x="500" 
d="M409 594h-69l-90 104l-90 -104h-69l125 153h68z" />
    <glyph glyph-name="caron" unicode="&#x2c7;" horiz-adv-x="500" 
d="M409 747l-125 -153h-68l-125 153h69l90 -105l90 105h69z" />
    <glyph glyph-name="breve" unicode="&#x2d8;" horiz-adv-x="500" 
d="M415 729q-12 -139 -165 -139t-165 139h56q5 -40 34 -61.5t75 -21.5t75 21.5t34 61.5h56z" />
    <glyph glyph-name="dotaccent" unicode="&#x2d9;" horiz-adv-x="500" 
d="M212 610v77h75v-77h-75z" />
    <glyph glyph-name="ring" unicode="&#x2da;" horiz-adv-x="500" 
d="M368 687q0 -49 -34.5 -84t-83.5 -35t-83.5 35t-34.5 84t34.5 83.5t83.5 34.5t83.5 -34.5t34.5 -83.5zM319 687q0 28 -20 48t-49 20t-49 -20t-20 -48q0 -29 20.5 -49t48.5 -20t48.5 20t20.5 49z" />
    <glyph glyph-name="ogonek" unicode="&#x2db;" horiz-adv-x="500" 
d="M369 -67l-59 -149h-79l71 149h67z" />
    <glyph glyph-name="tilde" unicode="&#x2dc;" 
d="M422 658q-50 -51 -95 -51q-30 0 -71 24q-35 20 -56 20q-27 0 -59 -32l-37 36q51 51 95 51q33 0 71 -24q35 -20 56 -20q27 0 59 32z" />
    <glyph glyph-name="hungarumlaut" unicode="&#x2dd;" horiz-adv-x="500" 
d="M304 747l-108 -153h-66l89 153h85zM467 747l-109 -153h-65l89 153h85z" />
    <glyph glyph-name="tonos" unicode="&#x384;" horiz-adv-x="255" 
d="M165 613l-76 -38v137h76v-99z" />
    <glyph glyph-name="dieresistonos" unicode="&#x385;" horiz-adv-x="488" 
d="M282 613l-76 -38v137h76v-99zM398 589h-72v90h72v-90zM161 589h-71v90h71v-90z" />
    <glyph glyph-name="Alphatonos" unicode="&#x386;" horiz-adv-x="611" 
d="M599 0h-81l-57 161h-311l-57 -161h-81l262 712h64zM439 227l-132 376l-134 -376h266zM78 613l-76 -38v137h76v-99z" />
    <glyph glyph-name="anoteleia" unicode="&#x387;" horiz-adv-x="270" 
d="M182 223h-94v94h94v-94z" />
    <glyph glyph-name="Epsilontonos" unicode="&#x388;" horiz-adv-x="600" 
d="M545 0h-442v712h442v-68h-366v-251h312v-68h-312v-257h366v-68zM18 613l-76 -38v137h76v-99z" />
    <glyph glyph-name="Etatonos" unicode="&#x389;" horiz-adv-x="696" 
d="M593 0h-76v325h-338v-325h-76v712h76v-319h338v319h76v-712zM18 613l-76 -38v137h76v-99z" />
    <glyph glyph-name="Iotatonos" unicode="&#x38a;" horiz-adv-x="282" 
d="M179 0h-76v712h76v-712zM18 613l-76 -38v137h76v-99z" />
    <glyph glyph-name="Omicrontonos" unicode="&#x38c;" horiz-adv-x="650" 
d="M574 356q0 -131 -10.5 -186.5t-56.5 -101.5q-74 -74 -182 -74t-182 74q-46 46 -56.5 101.5t-10.5 186.5t10.5 186.5t56.5 101.5q74 74 182 74t182 -74q46 -46 56.5 -101.5t10.5 -186.5zM498 356q0 117 -9 163.5t-41 79.5q-49 51 -123 51t-123 -51q-32 -33 -41 -79.5
t-9 -163.5t9 -163.5t41 -79.5q49 -51 123 -51t123 51q32 33 41 79.5t9 163.5zM38 613l-76 -38v137h76v-99z" />
    <glyph glyph-name="Upsilontonos" unicode="&#x38e;" horiz-adv-x="514" 
d="M506 712l-210 -418v-294h-76v294l-212 418h82l168 -341l166 341h82zM-32 613l-76 -38v137h76v-99z" />
    <glyph glyph-name="Omegatonos" unicode="&#x38f;" horiz-adv-x="650" 
d="M574 0h-195v64q64 30 92 76q16 26 21 73.5t5 140.5q0 118 -8.5 165.5t-40.5 79.5q-51 51 -123 51t-123 -51q-32 -33 -41 -80.5t-9 -164.5q0 -171 27 -214q28 -46 92 -76v-64h-195v67h82q-36 30 -55 67q-13 25 -19 63t-7 65t-1 79v15q0 131 10.5 186.5t56.5 101.5
q74 74 182 74t182 -74q46 -46 56.5 -101.5t10.5 -186.5q0 -133 -12 -180q-6 -24 -15 -42q-18 -36 -56 -67h83v-67zM38 613l-76 -38v137h76v-99z" />
    <glyph glyph-name="iotadieresistonos" unicode="&#x390;" horiz-adv-x="297" 
d="M265 0h-52q-62 0 -93.5 35.5t-31.5 95.5v361h72v-358q0 -37 15 -54.5t51 -17.5h39v-62zM164 613l-76 -38v137h76v-99zM280 589h-72v90h72v-90zM43 589h-71v90h71v-90z" />
    <glyph glyph-name="Alpha" unicode="&#x391;" horiz-adv-x="611" 
d="M599 0h-81l-57 161h-311l-57 -161h-81l262 712h64zM439 227l-132 376l-134 -376h266z" />
    <glyph glyph-name="Beta" unicode="&#x392;" horiz-adv-x="668" 
d="M592 197q0 -95 -57.5 -146t-154.5 -51h-277v712h268q94 0 152 -51t58 -139q0 -55 -29.5 -97t-75.5 -59q53 -19 84.5 -63t31.5 -106zM516 199q0 60 -38.5 95t-104.5 35h-194v-261h194q66 0 104.5 35.5t38.5 95.5zM505 521q0 61 -38.5 92t-101.5 31h-186v-247h186
q62 0 101 31.5t39 92.5z" />
    <glyph glyph-name="Gamma" unicode="&#x393;" horiz-adv-x="549" 
d="M529 644h-350v-644h-76v712h426v-68z" />
    <glyph glyph-name="Delta" unicode="&#x394;" horiz-adv-x="603" 
d="M594 0h-586l262 712h63zM495 66l-193 537l-194 -537h387z" />
    <glyph glyph-name="Epsilon" unicode="&#x395;" horiz-adv-x="600" 
d="M545 0h-442v712h442v-68h-366v-251h312v-68h-312v-257h366v-68z" />
    <glyph glyph-name="Zeta" unicode="&#x396;" horiz-adv-x="556" 
d="M499 0h-442v72l356 572h-342v68h428v-64l-359 -580h359v-68z" />
    <glyph glyph-name="Eta" unicode="&#x397;" horiz-adv-x="696" 
d="M593 0h-76v325h-338v-325h-76v712h76v-319h338v319h76v-712z" />
    <glyph glyph-name="Theta" unicode="&#x398;" horiz-adv-x="650" 
d="M574 356q0 -131 -10.5 -186.5t-56.5 -101.5q-74 -74 -182 -74t-182 74q-46 46 -56.5 101.5t-10.5 186.5t10.5 186.5t56.5 101.5q74 74 182 74t182 -74q46 -46 56.5 -101.5t10.5 -186.5zM498 324h-346q1 -95 10.5 -137.5t39.5 -73.5q49 -51 123 -51t123 51
q30 31 39.5 73.5t10.5 137.5zM498 391q-1 93 -10.5 135t-39.5 73q-49 51 -123 51t-123 -51q-30 -31 -39.5 -73t-10.5 -135h346z" />
    <glyph glyph-name="Iota" unicode="&#x399;" horiz-adv-x="282" 
d="M179 0h-76v712h76v-712z" />
    <glyph glyph-name="Kappa" unicode="&#x39a;" horiz-adv-x="650" 
d="M636 0h-90l-217 379l-150 -180v-199h-76v712h76v-409l332 409h93l-224 -275z" />
    <glyph glyph-name="Lambda" unicode="&#x39b;" horiz-adv-x="598" 
d="M568 0h-80l-188 604l-190 -604h-80l234 712h70z" />
    <glyph glyph-name="Mu" unicode="&#x39c;" horiz-adv-x="816" 
d="M713 0h-76v541l-195 -429h-65l-198 429v-541h-76v712h76l232 -505l226 505h76v-712z" />
    <glyph glyph-name="Nu" unicode="&#x39d;" horiz-adv-x="732" 
d="M629 0h-72l-378 571v-571h-76v712h72l378 -569v569h76v-712z" />
    <glyph glyph-name="Xi" unicode="&#x39e;" horiz-adv-x="573" 
d="M518 0h-463v68h193v257h-139v68h139v251h-193v68h463v-68h-194v-251h140v-68h-140v-257h194v-68z" />
    <glyph glyph-name="Omicron" unicode="&#x39f;" horiz-adv-x="650" 
d="M574 356q0 -131 -10.5 -186.5t-56.5 -101.5q-74 -74 -182 -74t-182 74q-46 46 -56.5 101.5t-10.5 186.5t10.5 186.5t56.5 101.5q74 74 182 74t182 -74q46 -46 56.5 -101.5t10.5 -186.5zM498 356q0 117 -9 163.5t-41 79.5q-49 51 -123 51t-123 -51q-32 -33 -41 -79.5
t-9 -163.5t9 -163.5t41 -79.5q49 -51 123 -51t123 51q32 33 41 79.5t9 163.5z" />
    <glyph glyph-name="Pi" unicode="&#x3a0;" horiz-adv-x="681" 
d="M578 0h-76v644h-323v-644h-76v712h475v-712z" />
    <glyph glyph-name="Rho" unicode="&#x3a1;" horiz-adv-x="630" 
d="M588 503q0 -95 -61 -152.5t-159 -57.5h-189v-293h-76v712h265q98 0 159 -57t61 -152zM512 503q0 69 -41 105t-110 36h-182v-283h182q69 0 110 36.5t41 105.5z" />
    <glyph glyph-name="Sigma" unicode="&#x3a3;" horiz-adv-x="557" 
d="M500 644h-339l168 -261l-189 -315h359v-68h-442v71l187 310l-172 269v62h428v-68z" />
    <glyph glyph-name="Tau" unicode="&#x3a4;" horiz-adv-x="548" 
d="M518 644h-206v-644h-76v644h-206v68h488v-68z" />
    <glyph glyph-name="Upsilon" unicode="&#x3a5;" horiz-adv-x="514" 
d="M506 712l-210 -418v-294h-76v294l-212 418h82l168 -341l166 341h82z" />
    <glyph glyph-name="Phi" unicode="&#x3a6;" horiz-adv-x="732" 
d="M670 361q0 -76 -12 -128.5t-53 -93.5q-77 -77 -201 -77v-62h-76v62q-124 0 -201 77q-41 41 -53 93.5t-12 128.5t12 128.5t53 93.5q77 77 201 77v52h76v-52q124 0 201 -77q41 -41 53 -93.5t12 -128.5zM594 361q0 41 -2 65t-13 57.5t-32 55.5q-52 53 -143 53v-462
q93 0 143 53q21 22 32 55.5t13 57.5t2 65zM328 130v462q-90 0 -142 -53q-31 -32 -39.5 -74.5t-8.5 -103.5q0 -40 2 -65t13.5 -58t32.5 -55q50 -53 142 -53z" />
    <glyph glyph-name="Chi" unicode="&#x3a7;" horiz-adv-x="551" 
d="M536 0h-88l-173 299l-174 -299h-86l218 365l-204 347h88l158 -281l158 281h88l-205 -347z" />
    <glyph glyph-name="Psi" unicode="&#x3a8;" horiz-adv-x="675" 
d="M623 370q0 -54 -14.5 -91t-48.5 -71q-74 -74 -182 -74h-2v-134h-76v134h-3q-108 0 -182 74q-34 34 -48.5 71t-14.5 91v342h76v-342q0 -42 11 -67.5t35 -50.5q48 -50 123 -50h3v510h76v-510h2q75 0 123 50q24 25 35 50.5t11 67.5v342h76v-342z" />
    <glyph glyph-name="Omega" unicode="&#x3a9;" horiz-adv-x="650" 
d="M574 0h-195v64q64 30 92 76q16 26 21 73.5t5 140.5q0 118 -8.5 165.5t-40.5 79.5q-51 51 -123 51t-123 -51q-32 -33 -41 -80.5t-9 -164.5q0 -171 27 -214q28 -46 92 -76v-64h-195v67h82q-36 30 -55 67q-13 25 -19 63t-7 65t-1 79v15q0 131 10.5 186.5t56.5 101.5
q74 74 182 74t182 -74q46 -46 56.5 -101.5t10.5 -186.5q0 -133 -12 -180q-6 -24 -15 -42q-18 -36 -56 -67h83v-67z" />
    <glyph glyph-name="Iotadieresis" unicode="&#x3aa;" horiz-adv-x="282" 
d="M179 0h-76v712h76v-712zM285 789h-72v89h72v-89zM73 789h-72v89h72v-89z" />
    <glyph glyph-name="Upsilondieresis" unicode="&#x3ab;" horiz-adv-x="514" 
d="M506 712l-210 -418v-294h-76v294l-212 418h82l168 -341l166 341h82zM399 789h-72v89h72v-89zM187 789h-72v89h72v-89z" />
    <glyph glyph-name="alphatonos" unicode="&#x3ac;" horiz-adv-x="545" 
d="M455 0h-71v59q-51 -65 -140 -65q-77 0 -120 43q-60 60 -60 209t60 209q43 43 120 43q45 0 77.5 -13.5t61.5 -49.5v57h72v-492zM383 246q0 41 -4.5 71t-16.5 58.5t-38 43.5t-64 15t-64 -15t-38.5 -43.5t-17 -58.5t-4.5 -71t4.5 -71t17 -58.5t38.5 -43.5t64 -15t64 15
t38 43.5t16.5 58.5t4.5 71zM304 613l-76 -38v137h76v-99z" />
    <glyph glyph-name="epsilontonos" unicode="&#x3ad;" horiz-adv-x="493" 
d="M450 73q-84 -79 -210 -79q-75 0 -126.5 37t-51.5 105q0 83 80 116q-71 28 -71 107q0 64 52 101.5t123 37.5q64 0 107 -16t85 -55l-45 -48q-64 58 -144 58q-40 0 -72 -22.5t-32 -57.5q0 -36 23.5 -57t67.5 -21h87v-57h-85q-54 0 -77.5 -23.5t-23.5 -59.5t30.5 -59.5
t75.5 -23.5q91 0 157 61zM294 613l-76 -38v137h76v-99z" />
    <glyph glyph-name="etatonos" unicode="&#x3ae;" horiz-adv-x="562" 
d="M477 0h-72v303q0 64 -32 97.5t-89 33.5t-89.5 -34t-32.5 -97v-303h-72v492h72v-54q52 60 138 60q80 0 126 -46q51 -50 51 -137v-315zM324 613l-76 -38v137h76v-99z" />
    <glyph glyph-name="iotatonos" unicode="&#x3af;" horiz-adv-x="297" 
d="M265 0h-52q-62 0 -93.5 35.5t-31.5 95.5v361h72v-358q0 -37 15 -54.5t51 -17.5h39v-62zM164 613l-76 -38v137h76v-99z" />
    <glyph glyph-name="upsilondieresistonos" unicode="&#x3b0;" horiz-adv-x="521" 
d="M453 245q0 -66 -10.5 -112.5t-46.5 -82.5q-56 -56 -136 -56q-79 0 -135 56q-36 36 -46.5 82.5t-10.5 112.5v247h71v-247v-10q0 -33 1 -51.5t9.5 -45t24.5 -42.5q38 -38 86 -38t86 38q18 18 26 48t8.5 45t0.5 56v247h72v-247zM298 613l-76 -38v137h76v-99zM414 589h-72v90
h72v-90zM177 589h-71v90h71v-90z" />
    <glyph glyph-name="alpha" unicode="&#x3b1;" horiz-adv-x="545" 
d="M455 0h-71v59q-51 -65 -140 -65q-77 0 -120 43q-60 60 -60 209t60 209q43 43 120 43q45 0 77.5 -13.5t61.5 -49.5v57h72v-492zM383 246q0 41 -4.5 71t-16.5 58.5t-38 43.5t-64 15t-64 -15t-38.5 -43.5t-17 -58.5t-4.5 -71t4.5 -71t17 -58.5t38.5 -43.5t64 -15t64 15
t38 43.5t16.5 58.5t4.5 71z" />
    <glyph glyph-name="beta" unicode="&#x3b2;" horiz-adv-x="553" 
d="M505 202q0 -84 -54.5 -146t-132.5 -62q-53 0 -89.5 13.5t-67.5 51.5v-59h-71v533q0 78 53.5 128.5t137.5 50.5q85 0 136 -44t51 -126q0 -54 -23.5 -98t-73.5 -58q134 -22 134 -184zM435 205q0 45 -13 75t-37.5 44.5t-50.5 19.5t-62 5h-59v57h61q125 0 125 126
q0 62 -32 91.5t-84 29.5q-60 0 -90.5 -38t-30.5 -101v-309q0 -62 33.5 -105.5t100.5 -43.5q69 0 104 44.5t35 104.5z" />
    <glyph glyph-name="gamma" unicode="&#x3b3;" horiz-adv-x="447" 
d="M435 492l-176 -487v-225h-71v225l-176 487h77l135 -398l134 398h77z" />
    <glyph glyph-name="delta" unicode="&#x3b4;" horiz-adv-x="531" 
d="M467 253q0 -142 -62 -205q-52 -54 -141 -54q-86 0 -138 54q-62 63 -62 198q0 128 60 189q51 53 130 53q34 0 57 -11l-193 175v60h306v-60h-217l158 -146q58 -54 80 -115.5t22 -137.5zM394 246q0 105 -37 147q-34 39 -89 39q-57 0 -92 -37q-40 -41 -40 -149t38 -149
q36 -39 91 -39q57 0 92 38q37 40 37 150z" />
    <glyph glyph-name="epsilon" unicode="&#x3b5;" horiz-adv-x="493" 
d="M450 73q-84 -79 -210 -79q-75 0 -126.5 37t-51.5 105q0 83 80 116q-71 28 -71 107q0 64 52 101.5t123 37.5q64 0 107 -16t85 -55l-45 -48q-64 58 -144 58q-40 0 -72 -22.5t-32 -57.5q0 -36 23.5 -57t67.5 -21h87v-57h-85q-54 0 -77.5 -23.5t-23.5 -59.5t30.5 -59.5
t75.5 -23.5q91 0 157 61z" />
    <glyph glyph-name="zeta" unicode="&#x3b6;" horiz-adv-x="470" 
d="M434 -45q0 -50 -32.5 -82.5t-104.5 -32.5v56q72 0 72 54q0 27 -18 38.5t-57 11.5h-48q-100 0 -147 29.5t-47 101.5q0 78 67 134q168 147 195 163h-232v64h343v-64l-152 -126q-15 -12 -43 -35t-37.5 -31.5t-26.5 -24.5t-22.5 -26t-10.5 -24t-5 -29q0 -38 31.5 -52
t98.5 -14h39q62 0 99.5 -27t37.5 -84z" />
    <glyph glyph-name="eta" unicode="&#x3b7;" horiz-adv-x="562" 
d="M477 0h-72v303q0 64 -32 97.5t-89 33.5t-89.5 -34t-32.5 -97v-303h-72v492h72v-54q52 60 138 60q80 0 126 -46q51 -50 51 -137v-315z" />
    <glyph glyph-name="theta" unicode="&#x3b8;" horiz-adv-x="552" 
d="M482 356q0 -136 -12 -192q-16 -73 -56 -114q-56 -56 -138 -56q-81 0 -137 56q-25 25 -40 59t-21 80t-7 74t-1 79v14v14q0 50 1 79t7 74t21 79.5t40 59.5q56 56 137 56q82 0 138 -56q32 -32 48 -88.5t18 -94.5t2 -105v-18zM410 346h-269q0 -59 1 -90.5t13 -85t35 -76.5
q37 -37 86 -37t86 37q22 22 33.5 71t13 82t1.5 88v11zM410 409q-2 163 -48 209q-36 36 -86 36t-86 -36q-46 -46 -48 -209h268z" />
    <glyph glyph-name="iota" unicode="&#x3b9;" horiz-adv-x="297" 
d="M265 0h-52q-62 0 -93.5 35.5t-31.5 95.5v361h72v-358q0 -37 15 -54.5t51 -17.5h39v-62z" />
    <glyph glyph-name="kappa" unicode="&#x3ba;" horiz-adv-x="536" 
d="M503 0h-89l-156 252l-96 -109v-143h-72v492h72v-256l222 256h89l-166 -188z" />
    <glyph glyph-name="lambda" unicode="&#x3bb;" horiz-adv-x="479" 
d="M487 0h-28q-52 0 -86 31q-23 22 -36 61l-97 302l-1 -1l-145 -393h-78l191 483l-37 117q-10 31 -25 41.5t-47 10.5h-18v62h23q50 0 80.5 -19.5t46.5 -67.5l167 -507q19 -58 67 -58h23v-62z" />
    <glyph glyph-name="mu" unicode="&#x3bc;" horiz-adv-x="561" 
d="M471 0h-72v55q-53 -61 -138 -61q-66 0 -106 37v-251h-72v712h72v-303q0 -64 32 -97.5t89 -33.5t90 34t33 97v303h72v-492z" />
    <glyph glyph-name="nu" unicode="&#x3bd;" horiz-adv-x="447" 
d="M435 492l-180 -492h-63l-180 492h77l135 -395l134 395h77z" />
    <glyph glyph-name="xi" unicode="&#x3be;" horiz-adv-x="492" 
d="M472 615l-46 -45q-65 68 -140 68q-57 0 -90.5 -33.5t-33.5 -91.5q0 -113 122 -113h120v-63h-118q-57 0 -104 -37t-47 -106q0 -67 42 -98.5t108 -31.5h53q52 0 86 -27.5t34 -81.5q0 -50 -32.5 -82.5t-104.5 -32.5v56q71 0 71 54q0 27 -18 38.5t-56 11.5h-55
q-88 0 -145.5 53t-57.5 138q0 67 34 115t90 65q-43 13 -69.5 52t-26.5 90q0 82 55.5 134.5t142.5 52.5q109 0 186 -85z" />
    <glyph glyph-name="omicron" unicode="&#x3bf;" 
d="M466 246q0 -135 -60 -196q-56 -56 -141 -56t-141 56q-60 61 -60 196t60 196q56 56 141 56t141 -56q60 -61 60 -196zM394 246q0 113 -39 152q-36 36 -90 36q-53 0 -89 -36q-40 -40 -40 -152t40 -152q36 -36 89 -36q54 0 90 36q39 39 39 152z" />
    <glyph glyph-name="pi" unicode="&#x3c0;" horiz-adv-x="591" 
d="M490 0h-69v427h-250v-427h-70v492h389v-492z" />
    <glyph glyph-name="rho" unicode="&#x3c1;" horiz-adv-x="517" 
d="M453 245q0 -145 -66 -208q-45 -43 -121 -43q-74 0 -130 62v-276h-72v495q0 112 58 170q53 53 135 53q94 0 146 -63q50 -61 50 -190zM381 246q0 106 -30 147q-30 40 -93 40q-57 0 -87 -38q-35 -43 -35 -146q0 -99 25 -139q33 -51 97 -51q38 0 63.5 15.5t38 44.5t17 58.5
t4.5 68.5z" />
    <glyph glyph-name="sigma1" unicode="&#x3c2;" horiz-adv-x="490" 
d="M443 425l-49 -46q-28 31 -53 43t-60 12q-75 0 -114 -56q-32 -45 -32 -132q0 -80 31 -125q38 -54 123 -56q148 -2 148 -110q0 -50 -33 -82.5t-105 -32.5v56q72 0 72 54q0 32 -22 41t-61 9q-105 1 -165 63.5t-60 182.5q0 122 60 187t158 65q52 0 88.5 -16t73.5 -57z" />
    <glyph glyph-name="sigma" unicode="&#x3c3;" horiz-adv-x="546" 
d="M486 428h-90q70 -49 70 -182q0 -68 -13 -113.5t-46 -80.5q-56 -58 -143 -58q-86 0 -142 58q-58 61 -58 194q0 68 12.5 112.5t45.5 78.5q53 55 142 55h222v-64zM395 246q0 103 -38 146q-35 38 -93 38q-55 0 -91 -39q-37 -42 -37 -145q0 -107 36 -148q37 -40 92 -40
q56 0 93 40q38 43 38 148z" />
    <glyph glyph-name="tau" unicode="&#x3c4;" horiz-adv-x="378" 
d="M346 428h-121v-428h-72v428h-121v64h314v-64z" />
    <glyph glyph-name="upsilon" unicode="&#x3c5;" horiz-adv-x="521" 
d="M453 245q0 -66 -10.5 -112.5t-46.5 -82.5q-56 -56 -136 -56q-79 0 -135 56q-36 36 -46.5 82.5t-10.5 112.5v247h71v-247v-10q0 -33 1 -51.5t9.5 -45t24.5 -42.5q38 -38 86 -38t86 38q18 18 26 48t8.5 45t0.5 56v247h72v-247z" />
    <glyph glyph-name="phi" unicode="&#x3c6;" horiz-adv-x="659" 
d="M595 250q0 -127 -51.5 -191.5t-178.5 -64.5v-214h-72v214q-229 3 -229 254q0 174 130 243l22 -60q-80 -51 -80 -186q0 -40 5.5 -69.5t21.5 -57.5t48.5 -43t81.5 -17v434h83q116 0 167.5 -59.5t51.5 -182.5zM522 253q0 44 -5 72t-21 53.5t-48 37.5t-83 12v-370q52 1 85 16
t48 44.5t19.5 58.5t4.5 76z" />
    <glyph glyph-name="chi" unicode="&#x3c7;" horiz-adv-x="478" 
d="M445 0h-87l-118 191l-120 -191h-87l167 251l-160 241h87l113 -182l111 182h87l-160 -241z" />
    <glyph glyph-name="psi" unicode="&#x3c8;" horiz-adv-x="641" 
d="M573 246q0 -124 -50 -186t-167 -65v-215h-73v215q-117 3 -166 64.5t-49 186.5v246h72v-246q0 -96 29 -139t114 -46v431h73v-431q86 3 115 46t29 139v246h73v-246z" />
    <glyph glyph-name="omega" unicode="&#x3c9;" horiz-adv-x="723" 
d="M659 242q0 -114 -35 -175q-42 -73 -136 -73q-46 0 -78.5 26t-48.5 67q-16 -41 -48.5 -67t-77.5 -26q-94 0 -136 73q-35 61 -35 175q0 53 13 106t37 81q55 65 128 69v-66q-23 -2 -45 -18t-34 -35q-16 -26 -22 -53.5t-6 -83.5q0 -96 24 -139q26 -45 76 -45q61 0 82 79
q8 34 8 98v126h73v-126q0 -68 7 -98q18 -79 83 -79q50 0 76 45q23 41 23 139q0 57 -6 84t-21 53q-11 19 -34 35t-46 18v66q73 -4 128 -69q24 -28 37.5 -81.5t13.5 -105.5z" />
    <glyph glyph-name="iotadieresis" unicode="&#x3ca;" horiz-adv-x="297" 
d="M265 0h-52q-62 0 -93.5 35.5t-31.5 95.5v361h72v-358q0 -37 15 -54.5t51 -17.5h39v-62zM269 602h-72v89h72v-89zM57 602h-72v89h72v-89z" />
    <glyph glyph-name="upsilondieresis" unicode="&#x3cb;" horiz-adv-x="521" 
d="M453 245q0 -66 -10.5 -112.5t-46.5 -82.5q-56 -56 -136 -56q-79 0 -135 56q-36 36 -46.5 82.5t-10.5 112.5v247h71v-247v-10q0 -33 1 -51.5t9.5 -45t24.5 -42.5q38 -38 86 -38t86 38q18 18 26 48t8.5 45t0.5 56v247h72v-247zM407 602h-72v89h72v-89zM195 602h-72v89h72
v-89z" />
    <glyph glyph-name="omicrontonos" unicode="&#x3cc;" 
d="M466 246q0 -135 -60 -196q-56 -56 -141 -56t-141 56q-60 61 -60 196t60 196q56 56 141 56t141 -56q60 -61 60 -196zM394 246q0 113 -39 152q-36 36 -90 36q-53 0 -89 -36q-40 -40 -40 -152t40 -152q36 -36 89 -36q54 0 90 36q39 39 39 152zM304 613l-76 -38v137h76v-99z
" />
    <glyph glyph-name="upsilontonos" unicode="&#x3cd;" horiz-adv-x="521" 
d="M453 245q0 -66 -10.5 -112.5t-46.5 -82.5q-56 -56 -136 -56q-79 0 -135 56q-36 36 -46.5 82.5t-10.5 112.5v247h71v-247v-10q0 -33 1 -51.5t9.5 -45t24.5 -42.5q38 -38 86 -38t86 38q18 18 26 48t8.5 45t0.5 56v247h72v-247zM294 613l-76 -38v137h76v-99z" />
    <glyph glyph-name="omegatonos" unicode="&#x3ce;" horiz-adv-x="723" 
d="M659 242q0 -114 -35 -175q-42 -73 -136 -73q-46 0 -78.5 26t-48.5 67q-16 -41 -48.5 -67t-77.5 -26q-94 0 -136 73q-35 61 -35 175q0 53 13 106t37 81q55 65 128 69v-66q-23 -2 -45 -18t-34 -35q-16 -26 -22 -53.5t-6 -83.5q0 -96 24 -139q26 -45 76 -45q61 0 82 79
q8 34 8 98v126h73v-126q0 -68 7 -98q18 -79 83 -79q50 0 76 45q23 41 23 139q0 57 -6 84t-21 53q-11 19 -34 35t-46 18v66q73 -4 128 -69q24 -28 37.5 -81.5t13.5 -105.5zM394 613l-76 -38v137h76v-99z" />
    <glyph glyph-name="beta1" unicode="&#x3d0;" horiz-adv-x="553" 
d="M505 202q0 -84 -54.5 -146t-132.5 -62q-53 0 -89 13t-67 51v-278h-72v753q0 78 53.5 128.5t137.5 50.5q85 0 136 -44t51 -126q0 -54 -23.5 -98t-73.5 -58q134 -22 134 -184zM435 205q0 45 -13 75t-37.5 44.5t-50.5 19.5t-62 5h-59v57h61q125 0 125 126q0 62 -32 91.5
t-84 29.5q-60 0 -90.5 -38t-30.5 -101v-309q0 -62 33.5 -105.5t100.5 -43.5q69 0 104 44.5t35 104.5z" />
    <glyph glyph-name="afii10023" unicode="&#x401;" horiz-adv-x="600" 
d="M545 0h-442v712h442v-68h-366v-251h312v-68h-312v-257h366v-68zM455 789h-72v89h72v-89zM243 789h-72v89h72v-89z" />
    <glyph glyph-name="afii10051" unicode="&#x402;" horiz-adv-x="744" 
d="M277 368v-368h-76v644h-175v68h487v-68h-236v-209h160q99 0 159 -57t60 -151v-19q0 -94 -60 -151t-159 -57h-41v66h33q71 0 111 37.5t40 104.5v19q0 67 -40 104t-111 37h-152z" />
    <glyph glyph-name="afii10052" unicode="&#x403;" horiz-adv-x="569" 
d="M538 644h-352v-644h-76v712h428v-68zM441 934l-108 -153h-66l88 153h86z" />
    <glyph glyph-name="afii10053" unicode="&#x404;" horiz-adv-x="637" 
d="M497 206h75q-18 -100 -84.5 -156t-162.5 -56q-108 0 -182 74q-46 46 -56.5 101.5t-10.5 186.5t10.5 186.5t56.5 101.5q74 74 182 74q97 0 163 -56t84 -156h-77q-14 67 -59 106t-111 39q-73 0 -124 -51q-30 -31 -39.5 -73t-9.5 -135h269v-67h-270q1 -97 10.5 -140
t39.5 -73q51 -51 124 -51q66 0 111.5 39t60.5 106z" />
    <glyph glyph-name="afii10054" unicode="&#x405;" horiz-adv-x="588" 
d="M532 196q0 -93 -67 -147.5t-179 -54.5q-80 0 -137 22t-107 72l52 52q43 -43 87.5 -60.5t106.5 -17.5q78 0 123 35t45 97q0 59 -34 89q-17 15 -35 21.5t-58 12.5l-83 13q-85 14 -131 54q-54 48 -54 133q0 91 61.5 146t166.5 55q68 0 117 -18t95 -60l-49 -49
q-67 61 -166 61q-70 0 -110 -36t-40 -96q0 -54 32 -82q33 -29 96 -39l78 -12q87 -13 130 -50q60 -51 60 -141z" />
    <glyph glyph-name="afii10055" unicode="&#x406;" horiz-adv-x="282" 
d="M179 0h-76v712h76v-712z" />
    <glyph glyph-name="afii10056" unicode="&#x407;" horiz-adv-x="282" 
d="M179 0h-76v712h76v-712zM284 789h-72v89h72v-89zM72 789h-72v89h72v-89z" />
    <glyph glyph-name="afii10057" unicode="&#x408;" horiz-adv-x="501" 
d="M408 216q0 -102 -61.5 -162t-160.5 -60t-163 64l51 51q23 -23 47.5 -35t64.5 -12q70 0 108 42.5t38 121.5v486h76v-496z" />
    <glyph glyph-name="afii10058" unicode="&#x409;" horiz-adv-x="1025" 
d="M909 209q0 67 -40 104.5t-111 37.5h-184v-283h184q71 0 111 37t40 104zM182 712h392v-293h192q99 0 159 -57.5t60 -152.5q0 -94 -60 -151.5t-159 -57.5h-268v644h-242v-244q0 -218 -51 -309t-157 -91h-36v68h19q36 0 61.5 14.5t46.5 51.5t32 109t11 180v289z" />
    <glyph glyph-name="afii10059" unicode="&#x40a;" horiz-adv-x="1043" 
d="M1003 209q0 -94 -60 -151.5t-159 -57.5h-268v351h-337v-351h-76v712h76v-293h337v293h76v-293h192q99 0 159 -57.5t60 -152.5zM927 209q0 67 -40 104.5t-111 37.5h-184v-283h184q71 0 111 37t40 104z" />
    <glyph glyph-name="afii10060" unicode="&#x40b;" horiz-adv-x="744" 
d="M656 0h-76v227q0 67 -40 104t-111 37h-152v-368h-76v644h-175v68h487v-68h-236v-209h160q99 0 159 -57t60 -151v-227z" />
    <glyph glyph-name="afii10061" unicode="&#x40c;" horiz-adv-x="610" 
d="M183 0h-76v712h76v-339l305 339h96l-312 -338l339 -374h-101l-327 371v-371zM453 934l-108 -153h-66l88 153h86z" />
    <glyph glyph-name="afii10062" unicode="&#x40e;" horiz-adv-x="546" 
d="M429 883q-8 -126 -146 -126t-146 126h64q6 -74 82 -74t82 74h64zM537 712l-258 -601q-48 -111 -140 -111h-62v68h45q36 0 57 16.5t37 54.5l29 67l-235 506h81l192 -421l173 421h81z" />
    <glyph glyph-name="afii10145" unicode="&#x40f;" horiz-adv-x="696" 
d="M592 0h-206v-172h-75v172h-208v712h76v-644h337v644h76v-712z" />
    <glyph glyph-name="afii10017" unicode="&#x410;" horiz-adv-x="611" 
d="M599 0h-81l-57 161h-311l-57 -161h-81l262 712h64zM439 227l-132 376l-134 -376h266z" />
    <glyph glyph-name="afii10018" unicode="&#x411;" horiz-adv-x="656" 
d="M591 209q0 -94 -60 -151.5t-159 -57.5h-269v712h444v-68h-368v-225h193q99 0 159 -57.5t60 -152.5zM515 209q0 67 -39.5 104.5t-110.5 37.5h-186v-283h186q71 0 110.5 37t39.5 104z" />
    <glyph glyph-name="afii10019" unicode="&#x412;" horiz-adv-x="668" 
d="M592 195q0 -91 -56.5 -143t-155.5 -52h-277v712h268q94 0 152 -51.5t58 -135.5q0 -77 -52 -126q-17 -17 -53 -33q42 -18 63 -39q53 -51 53 -132zM505 521q0 58 -37 90.5t-103 32.5h-186v-247h186q66 0 103 33t37 91zM516 199q0 60 -38.5 95t-104.5 35h-194v-261h194
q66 0 104.5 35.5t38.5 95.5z" />
    <glyph glyph-name="afii10020" unicode="&#x413;" horiz-adv-x="569" 
d="M538 644h-352v-644h-76v712h428v-68z" />
    <glyph glyph-name="afii10021" unicode="&#x414;" horiz-adv-x="694" 
d="M26 68h63q90 141 90 404v240h389v-644h85v-240h-75v172h-477v-172h-75v240zM174 68h318v576h-241v-219q0 -222 -77 -357z" />
    <glyph glyph-name="afii10022" unicode="&#x415;" horiz-adv-x="600" 
d="M545 0h-442v712h442v-68h-366v-251h312v-68h-312v-257h366v-68z" />
    <glyph glyph-name="afii10024" unicode="&#x416;" horiz-adv-x="900" 
d="M99 0h-100l326 374l-300 338h96l291 -339v339h76v-339l290 339h96l-299 -338l326 -374h-100l-313 371v-371h-76v371z" />
    <glyph glyph-name="afii10025" unicode="&#x417;" horiz-adv-x="616" 
d="M303 -6q-94 0 -159.5 56.5t-82.5 155.5h75q14 -67 59.5 -106t111.5 -39q69 0 113 37t44 100q0 133 -145 133h-90v66h93q62 0 96.5 33.5t34.5 95.5q0 60 -39 93t-106 33q-66 0 -110.5 -39.5t-59.5 -106.5h-76q17 100 83 156t164 56q97 0 158.5 -51.5t61.5 -137.5
q0 -115 -103 -162q114 -42 114 -171q0 -91 -67 -146.5t-170 -55.5z" />
    <glyph glyph-name="afii10026" unicode="&#x418;" horiz-adv-x="716" 
d="M613 0h-76v581l-362 -581h-72v712h76v-580l362 580h72v-712z" />
    <glyph glyph-name="afii10027" unicode="&#x419;" horiz-adv-x="716" 
d="M613 0h-76v581l-362 -581h-72v712h76v-580l362 580h72v-712zM504 883q-8 -126 -146 -126t-146 126h64q6 -74 82 -74t82 74h64z" />
    <glyph glyph-name="afii10028" unicode="&#x41a;" horiz-adv-x="610" 
d="M183 0h-76v712h76v-339l305 339h96l-312 -338l339 -374h-101l-327 371v-371z" />
    <glyph glyph-name="afii10029" unicode="&#x41b;" horiz-adv-x="677" 
d="M574 0h-76v644h-242v-244q0 -218 -51 -309t-157 -91h-36v68h19q36 0 61.5 14.5t46.5 51.5t32 109t11 180v289h392v-712z" />
    <glyph glyph-name="afii10030" unicode="&#x41c;" horiz-adv-x="816" 
d="M713 0h-76v541l-195 -429h-65l-198 429v-541h-76v712h76l232 -505l226 505h76v-712z" />
    <glyph glyph-name="afii10031" unicode="&#x41d;" horiz-adv-x="696" 
d="M593 0h-76v325h-338v-325h-76v712h76v-319h338v319h76v-712z" />
    <glyph glyph-name="afii10032" unicode="&#x41e;" horiz-adv-x="650" 
d="M574 405v-49q0 -124 -11 -183.5t-56 -104.5q-74 -74 -182 -74t-182 74q-45 45 -56 104.5t-11 183.5v55q0 79 13 135.5t54 97.5q74 74 182 74t182 -74q42 -42 54.5 -99.5t12.5 -139.5zM498 321v73q0 78 -9 125.5t-41 79.5q-51 51 -123 51t-123 -51q-24 -24 -35.5 -61.5
t-13 -67.5t-1.5 -93v-71q0 -70 9.5 -116t40.5 -77q51 -51 123 -51t123 51q23 23 34.5 60t13.5 66t2 82z" />
    <glyph glyph-name="afii10033" unicode="&#x41f;" horiz-adv-x="696" 
d="M592 0h-76v644h-337v-644h-76v712h489v-712z" />
    <glyph glyph-name="afii10034" unicode="&#x420;" horiz-adv-x="630" 
d="M588 503q0 -95 -60.5 -152.5t-159.5 -57.5h-189v-293h-76v712h265q99 0 159.5 -57.5t60.5 -151.5zM512 503q0 67 -40 104t-111 37h-182v-283h182q71 0 111 37.5t40 104.5z" />
    <glyph glyph-name="afii10035" unicode="&#x421;" horiz-adv-x="637" 
d="M572 206q-17 -99 -84 -155.5t-163 -56.5q-108 0 -182 74q-46 46 -56.5 101.5t-10.5 186.5t10.5 186.5t56.5 101.5q74 74 182 74q97 0 163 -56t84 -156h-78q-14 66 -58.5 105t-110.5 39q-75 0 -123 -50q-32 -33 -41 -80t-9 -164t9 -164t41 -80q48 -50 123 -50
q66 0 111.5 39t59.5 105h76z" />
    <glyph glyph-name="afii10036" unicode="&#x422;" horiz-adv-x="548" 
d="M518 644h-206v-644h-76v644h-206v68h488v-68z" />
    <glyph glyph-name="afii10037" unicode="&#x423;" horiz-adv-x="546" 
d="M537 712l-258 -601q-48 -111 -140 -111h-62v68h45q36 0 57 16.5t37 54.5l29 67l-235 506h81l192 -421l173 421h81z" />
    <glyph glyph-name="afii10038" unicode="&#x424;" horiz-adv-x="779" 
d="M428 606v-453q119 3 169.5 59.5t50.5 166.5q0 111 -49 167.5t-171 59.5zM352 153v453q-123 -3 -172 -59.5t-49 -167.5q0 -110 50.5 -166.5t170.5 -59.5zM428 -4h-76v92q-155 5 -226 78.5t-71 215.5q0 141 72 212.5t225 76.5v67h76v-67q153 -5 224.5 -76.5t71.5 -212.5
q0 -143 -71 -216t-225 -78v-92z" />
    <glyph glyph-name="afii10039" unicode="&#x425;" horiz-adv-x="551" 
d="M536 0h-88l-173 299l-174 -299h-86l218 365l-204 347h88l158 -281l158 281h88l-205 -347z" />
    <glyph glyph-name="afii10040" unicode="&#x426;" horiz-adv-x="718" 
d="M677 -172h-75v172h-499v712h76v-644h337v644h76v-644h85v-240z" />
    <glyph glyph-name="afii10041" unicode="&#x427;" horiz-adv-x="645" 
d="M542 0h-76v291q-132 -27 -201 -27q-82 0 -135.5 42.5t-53.5 135.5v270h76v-256q0 -124 132 -124q57 0 182 25v355h76v-712z" />
    <glyph glyph-name="afii10042" unicode="&#x428;" horiz-adv-x="997" 
d="M894 0h-791v712h76v-644h281v644h77v-644h281v644h76v-712z" />
    <glyph glyph-name="afii10043" unicode="&#x429;" horiz-adv-x="1019" 
d="M978 -172h-75v172h-800v712h76v-644h281v644h77v-644h281v644h76v-644h84v-240z" />
    <glyph glyph-name="afii10044" unicode="&#x42a;" horiz-adv-x="727" 
d="M687 209q0 -94 -60 -151.5t-159 -57.5h-268v644h-170v68h247v-293h191q99 0 159 -57.5t60 -152.5zM611 209q0 67 -39.5 104.5t-110.5 37.5h-184v-283h184q71 0 110.5 37t39.5 104z" />
    <glyph glyph-name="afii10045" unicode="&#x42b;" horiz-adv-x="864" 
d="M761 0h-76v712h76v-712zM590 209q0 -94 -60.5 -151.5t-159.5 -57.5h-267v712h76v-293h191q100 0 160 -57.5t60 -152.5zM513 209q0 67 -39.5 104.5t-110.5 37.5h-184v-283h184q71 0 110.5 37t39.5 104z" />
    <glyph glyph-name="afii10046" unicode="&#x42c;" horiz-adv-x="630" 
d="M590 209q0 -94 -60.5 -151.5t-159.5 -57.5h-267v712h76v-293h191q100 0 160 -57.5t60 -152.5zM513 209q0 67 -39.5 104.5t-110.5 37.5h-184v-283h184q71 0 110.5 37t39.5 104z" />
    <glyph glyph-name="afii10047" unicode="&#x42d;" horiz-adv-x="637" 
d="M65 206h75q15 -67 60.5 -106t111.5 -39q73 0 124 51q30 30 39.5 73t10.5 140h-270v67h269q0 93 -9.5 135t-39.5 73q-51 51 -124 51q-66 0 -111 -39t-59 -106h-77q18 100 84 156t163 56q108 0 182 -74q46 -46 56.5 -101.5t10.5 -186.5t-10.5 -186.5t-56.5 -101.5
q-74 -74 -182 -74q-96 0 -162.5 56t-84.5 156z" />
    <glyph glyph-name="afii10048" unicode="&#x42e;" horiz-adv-x="903" 
d="M828 356q0 -130 -11.5 -186.5t-55.5 -101.5q-74 -74 -182 -74t-182 74q-42 43 -54.5 97t-12.5 160h-151v-325h-76v712h76v-319h151q1 101 12.5 154.5t54.5 96.5q74 74 182 74t182 -74q39 -40 53 -94t14 -130v-64zM751 344v31q0 104 -9.5 149t-39.5 76q-50 50 -123 50
q-75 0 -123 -50q-32 -32 -41 -82t-9 -156v-35q0 -96 10.5 -139.5t39.5 -74.5q51 -51 123 -51q74 0 123 51q23 24 34.5 61t13 69t1.5 101z" />
    <glyph glyph-name="afii10049" unicode="&#x42f;" horiz-adv-x="655" 
d="M300 293l-155 -293h-89l164 304q-71 17 -112 70t-41 129q0 95 60.5 152t159.5 57h265v-712h-76v293h-176zM476 361v284h-182q-71 0 -111 -37.5t-40 -104.5t40 -104.5t111 -37.5h182z" />
    <glyph glyph-name="afii10065" unicode="&#x430;" horiz-adv-x="526" 
d="M441 0h-72v47q-32 -30 -56 -40q-30 -13 -87 -13q-85 0 -130 37t-45 108q0 67 45 104.5t125 37.5h148v47q0 56 -31 82t-98 26q-46 0 -76 -15q-22 -10 -45 -41l-49 45q34 39 62 53q40 20 110 20q199 0 199 -164v-334zM369 174v53h-138q-110 0 -110 -87q0 -44 28.5 -64
t90.5 -20q69 0 99 27.5t30 90.5z" />
    <glyph glyph-name="afii10066" unicode="&#x431;" horiz-adv-x="533" 
d="M273 58q54 0 88 36q39 42 39 148q0 115 -38 154q-36 38 -89 38q-54 0 -90 -38q-41 -44 -41 -152q0 -106 42 -150q34 -36 89 -36zM273 -6q-68 0 -116 34.5t-68 96.5q-18 57 -18 218q0 151 12 207t57 98q21 20 47 33t61.5 19.5t58 9t68 4.5t59.5 3v-65q-8 -1 -72 -4.5
t-104.5 -13t-66.5 -31.5q-32 -28 -43.5 -70.5t-11.5 -110.5q18 33 59 53t89 20q76 0 123 -44q64 -60 64 -204q0 -139 -60 -199q-52 -54 -138 -54z" />
    <glyph glyph-name="afii10067" unicode="&#x432;" horiz-adv-x="539" 
d="M472 136q0 -63 -39 -99.5t-108 -36.5h-234v492h228q65 0 105 -35.5t40 -93.5q0 -80 -78 -108q86 -32 86 -119zM393 357q0 73 -87 73h-144v-147h144q87 0 87 74zM401 143q0 37 -23.5 59t-65.5 22h-150v-162h150q42 0 65.5 22t23.5 59z" />
    <glyph glyph-name="afii10068" unicode="&#x433;" horiz-adv-x="417" 
d="M406 430h-240v-430h-72v492h312v-62z" />
    <glyph glyph-name="afii10069" unicode="&#x434;" horiz-adv-x="556" 
d="M523 -147h-70v147h-366v-147h-69v209h58q33 74 49 144t16 192v94h309v-430h73v-209zM378 62v368h-168v-93q-1 -150 -56 -275h224z" />
    <glyph glyph-name="afii10070" unicode="&#x435;" 
d="M467 227h-332q3 -59 15 -89q34 -81 134 -81q32 0 63 12q28 12 62 44l49 -43q-45 -44 -83 -59q-42 -17 -95 -17q-107 0 -162 65t-55 190q0 116 54 182.5t148 66.5t148 -64t54 -174v-33zM395 281q-2 45 -9 65q-13 43 -45 67t-76 24q-39 0 -69.5 -19.5t-45.5 -54.5
q-13 -28 -15 -82h260z" />
    <glyph glyph-name="afii10072" unicode="&#x436;" horiz-adv-x="715" 
d="M97 0h-91l231 260l-211 232h88l208 -236v236h71v-236l209 236h87l-211 -232l231 -260h-91l-225 254v-254h-71v254z" />
    <glyph glyph-name="afii10073" unicode="&#x437;" horiz-adv-x="482" 
d="M415 139q0 -65 -54.5 -104.5t-131.5 -39.5q-120 0 -197 70l45 47q33 -30 65.5 -42.5t78.5 -12.5q48 0 86 23.5t38 61.5q0 40 -27.5 61t-73.5 21h-72v60h73q41 0 66.5 21t25.5 58t-29.5 56t-81.5 19q-73 0 -132 -41l-41 48q73 53 180 53q76 0 125 -35.5t49 -97.5
q0 -37 -20.5 -67t-57.5 -43q39 -12 62.5 -43t23.5 -73z" />
    <glyph glyph-name="afii10074" unicode="&#x438;" horiz-adv-x="577" 
d="M487 0h-72v381l-253 -381h-71v492h71v-379l253 379h72v-492z" />
    <glyph glyph-name="afii10075" unicode="&#x439;" horiz-adv-x="577" 
d="M435 704q-8 -126 -146 -126t-146 126h64q6 -75 82 -75t82 75h64zM487 0h-72v381l-253 -381h-71v492h71v-379l253 379h72v-492z" />
    <glyph glyph-name="afii10076" unicode="&#x43a;" horiz-adv-x="498" 
d="M166 0h-72v492h72v-236l217 236h89l-221 -232l241 -260h-93l-233 254v-254z" />
    <glyph glyph-name="afii10077" unicode="&#x43b;" horiz-adv-x="546" 
d="M456 0h-72v430h-174v-170q0 -145 -41 -202.5t-115 -57.5h-33v62h16q16 0 28 3t27.5 15.5t25 34.5t16.5 64.5t7 101.5v211h315v-492z" />
    <glyph glyph-name="afii10078" unicode="&#x43c;" horiz-adv-x="656" 
d="M565 0h-72v350l-137 -272h-55l-139 272v-350h-71v492h71l167 -331l165 331h71v-492z" />
    <glyph glyph-name="afii10079" unicode="&#x43d;" horiz-adv-x="562" 
d="M472 0h-72v223h-238v-223h-71v492h71v-207h238v207h72v-492z" />
    <glyph glyph-name="afii10080" unicode="&#x43e;" 
d="M466 249q0 -138 -60 -199q-56 -56 -141 -56t-141 56q-60 61 -60 196t60 196q56 56 141 56t141 -56q60 -60 60 -193zM394 243q0 63 -8.5 98t-30.5 57q-34 36 -90 36q-55 0 -89 -36q-40 -40 -40 -152q0 -111 40 -152q34 -36 89 -36q56 0 90 36q39 40 39 149z" />
    <glyph glyph-name="afii10081" unicode="&#x43f;" horiz-adv-x="562" 
d="M472 0h-72v430h-238v-430h-71v492h381v-492z" />
    <glyph glyph-name="afii10082" unicode="&#x440;" horiz-adv-x="545" 
d="M481 245q0 -128 -44.5 -189.5t-138.5 -61.5q-46 0 -79 16q-27 13 -57 48v-278h-72v712h72v-58q29 34 56 48q32 16 79 16q95 0 139.5 -61t44.5 -192zM409 245q0 101 -29 145t-95 44q-64 0 -93.5 -45t-29.5 -143q0 -99 29.5 -143.5t94.5 -44.5t94 44.5t29 142.5z" />
    <glyph glyph-name="afii10083" unicode="&#x441;" horiz-adv-x="490" 
d="M443 67q-41 -43 -76 -58q-36 -15 -83 -15q-103 0 -162 67t-59 185t59 185t162 67q47 0 83 -15q35 -15 76 -58l-49 -46q-33 34 -56 44q-25 11 -55 11q-148 0 -148 -188t147 -188q31 0 54 10q24 11 58 46z" />
    <glyph glyph-name="afii10084" unicode="&#x442;" horiz-adv-x="423" 
d="M413 430h-161v-430h-72v430h-169v62h402v-62z" />
    <glyph glyph-name="afii10085" unicode="&#x443;" horiz-adv-x="447" 
d="M436 492l-224 -611q-34 -92 -131 -92h-31v64h22q35 0 51.5 12t29.5 49l35 96l-177 482h78l135 -395l134 395h78z" />
    <glyph glyph-name="afii10086" unicode="&#x444;" horiz-adv-x="690" 
d="M630 247q0 -119 -65 -183t-184 -70v-214h-72v214q-119 6 -184 70t-65 183t65 182t184 69v214h72v-214q119 -6 184 -69t65 -182zM558 246q0 182 -178 188v-376q87 2 132.5 52t45.5 136zM310 58v376q-91 -3 -134.5 -53t-43.5 -135q0 -86 45.5 -136t132.5 -52z" />
    <glyph glyph-name="afii10087" unicode="&#x445;" horiz-adv-x="478" 
d="M445 0h-87l-118 191l-120 -191h-87l167 251l-160 241h87l113 -182l111 182h87l-160 -241z" />
    <glyph glyph-name="afii10088" unicode="&#x446;" horiz-adv-x="579" 
d="M546 -147h-70v147h-385v492h71v-430h238v430h72v-430h74v-209z" />
    <glyph glyph-name="afii10089" unicode="&#x447;" horiz-adv-x="523" 
d="M433 0h-72v192q-88 -19 -148 -19q-67 0 -105 35t-38 105v179h72v-166q0 -47 21 -67.5t64 -20.5q56 0 134 16v238h72v-492z" />
    <glyph glyph-name="afii10090" unicode="&#x448;" horiz-adv-x="801" 
d="M710 0h-619v492h71v-430h202v430h72v-430h202v430h72v-492z" />
    <glyph glyph-name="afii10091" unicode="&#x449;" horiz-adv-x="816" 
d="M784 -147h-70v147h-623v492h71v-430h202v430h72v-430h202v430h72v-430h74v-209z" />
    <glyph glyph-name="afii10092" unicode="&#x44a;" horiz-adv-x="563" 
d="M523 148q0 -67 -43 -107.5t-113 -40.5h-219v430h-137v62h208v-195h148q71 0 113.5 -41t42.5 -108zM451 148q0 41 -23.5 63.5t-68.5 22.5h-140v-172h140q45 0 68.5 22.5t23.5 63.5z" />
    <glyph glyph-name="afii10093" unicode="&#x44b;" horiz-adv-x="718" 
d="M617 0h-72v492h72v-492zM466 148q0 -67 -43 -107.5t-113 -40.5h-219v492h71v-195h148q71 0 113.5 -41t42.5 -108zM394 148q0 41 -23.5 63.5t-68.5 22.5h-140v-172h140q45 0 68.5 22.5t23.5 63.5z" />
    <glyph glyph-name="afii10094" unicode="&#x44c;" horiz-adv-x="506" 
d="M466 148q0 -67 -43 -107.5t-113 -40.5h-219v492h71v-195h148q71 0 113.5 -41t42.5 -108zM394 148q0 41 -23.5 63.5t-68.5 22.5h-140v-172h140q45 0 68.5 22.5t23.5 63.5z" />
    <glyph glyph-name="afii10095" unicode="&#x44d;" horiz-adv-x="490" 
d="M426 247q0 -119 -58 -186t-162 -67q-52 0 -86.5 16.5t-72.5 56.5l48 46q28 -30 52.5 -43t60.5 -13q73 0 109 47.5t38 122.5h-202v54h201q-5 70 -42 112t-105 42q-35 0 -59.5 -13.5t-52.5 -42.5l-48 46q38 40 72.5 56.5t86.5 16.5q103 0 161.5 -66.5t58.5 -184.5z" />
    <glyph glyph-name="afii10096" unicode="&#x44e;" horiz-adv-x="728" 
d="M664 249q0 -139 -60 -199q-54 -56 -141 -56q-82 0 -135 51q-62 58 -65 177h-101v-222h-71v492h71v-209h101q6 109 64 164q54 51 136 51q96 0 150 -66q51 -63 51 -183zM592 245q0 109 -38 151q-33 38 -91 38t-91 -38q-38 -41 -38 -149q0 -60 8 -93.5t29 -56.5
q36 -39 92 -39t92 39q37 41 37 148z" />
    <glyph glyph-name="afii10097" unicode="&#x44f;" horiz-adv-x="527" 
d="M365 252v181h-139q-47 0 -72.5 -23.5t-25.5 -67.5q0 -43 25.5 -66.5t72.5 -23.5h139zM140 0h-83l115 202q-53 11 -84 49t-31 94q0 66 42.5 106.5t112.5 40.5h224v-492h-71v193h-118z" />
    <glyph glyph-name="afii10071" unicode="&#x451;" 
d="M467 227h-332q3 -59 15 -89q34 -81 134 -81q32 0 63 12q28 12 62 44l49 -43q-45 -44 -83 -59q-42 -17 -95 -17q-107 0 -162 65t-55 190q0 116 54 182.5t148 66.5t148 -64t54 -174v-33zM395 281q-2 45 -9 65q-13 43 -45 67t-76 24q-39 0 -69.5 -19.5t-45.5 -54.5
q-13 -28 -15 -82h260zM410 602h-72v89h72v-89zM198 602h-72v89h72v-89z" />
    <glyph glyph-name="afii10099" unicode="&#x452;" horiz-adv-x="562" 
d="M477 -70q0 -66 -36.5 -108.5t-109.5 -42.5h-48v62h36q40 0 63 26t23 66v365q0 131 -116 131q-58 0 -92.5 -35t-34.5 -96v-298h-71v562h-58v54h58v96h71v-96h248v-54h-248v-130q61 61 143 61q81 0 126.5 -49t45.5 -134v-380z" />
    <glyph glyph-name="afii10100" unicode="&#x453;" horiz-adv-x="417" 
d="M406 430h-240v-430h-72v492h312v-62zM345 747l-108 -153h-66l88 153h86z" />
    <glyph glyph-name="afii10101" unicode="&#x454;" horiz-adv-x="490" 
d="M443 67q-38 -40 -72.5 -56.5t-87.5 -16.5q-104 0 -162 67t-58 186q0 118 58.5 184.5t161.5 66.5q53 0 87 -16.5t73 -56.5l-48 -46q-29 30 -53.5 43t-59.5 13q-68 0 -104.5 -42t-41.5 -112h209v-54h-210q2 -76 37.5 -123t109.5 -47q36 0 60.5 13t52.5 43z" />
    <glyph glyph-name="afii10102" unicode="&#x455;" horiz-adv-x="496" 
d="M445 144q0 -70 -54.5 -110t-145.5 -40q-128 0 -202 71l48 48q54 -57 153 -57q62 0 96.5 22t34.5 65q0 65 -82 72l-81 7q-147 12 -147 132q0 66 50.5 105t130.5 39q112 0 177 -53l-47 -47q-51 39 -131 39q-53 0 -81.5 -21.5t-28.5 -59.5q0 -65 86 -72l79 -7
q70 -6 107.5 -37t37.5 -96z" />
    <glyph glyph-name="afii10103" unicode="&#x456;" horiz-adv-x="253" 
d="M167 632h-81v81h81v-81zM162 0h-72v492h72v-492z" />
    <glyph glyph-name="afii10104" unicode="&#x457;" horiz-adv-x="253" 
d="M162 0h-72v492h72v-492zM269 602h-72v89h72v-89zM57 602h-72v89h72v-89z" />
    <glyph glyph-name="afii10105" unicode="&#x458;" horiz-adv-x="253" 
d="M167 632h-81v81h81v-81zM162 -89q0 -59 -31.5 -95.5t-93.5 -36.5h-52v63h39q36 0 51 17.5t15 54.5v575h72v-578z" />
    <glyph glyph-name="afii10106" unicode="&#x459;" horiz-adv-x="801" 
d="M689 148q0 41 -23.5 63.5t-68.5 22.5h-140v-172h140q45 0 68.5 22.5t23.5 63.5zM141 492h316v-195h148q71 0 113.5 -41t42.5 -108t-43 -107.5t-113 -40.5h-219v430h-176v-170q0 -145 -41 -202.5t-115 -57.5h-33v62h16q16 0 28 3t27.5 15.5t25 34.5t16.5 64.5t7 101.5v211
z" />
    <glyph glyph-name="afii10107" unicode="&#x45a;" horiz-adv-x="816" 
d="M776 148q0 -67 -43 -107.5t-113 -40.5h-220v234h-238v-234h-71v492h71v-195h238v195h72v-195h148q71 0 113.5 -41t42.5 -108zM704 148q0 41 -23.5 63.5t-68.5 22.5h-140v-172h140q45 0 68.5 22.5t23.5 63.5z" />
    <glyph glyph-name="afii10108" unicode="&#x45b;" horiz-adv-x="562" 
d="M477 0h-72v298q0 63 -31 97t-89 34t-90.5 -34.5t-32.5 -96.5v-298h-71v562h-58v54h58v96h71v-96h248v-54h-248v-130q33 32 64 46.5t75 14.5q81 0 128.5 -49.5t47.5 -133.5v-310z" />
    <glyph glyph-name="afii10109" unicode="&#x45c;" horiz-adv-x="498" 
d="M166 0h-72v492h72v-236l217 236h89l-221 -232l241 -260h-93l-233 254v-254zM387 747l-108 -153h-66l88 153h86z" />
    <glyph glyph-name="afii10110" unicode="&#x45e;" horiz-adv-x="447" 
d="M370 704q-8 -126 -146 -126t-146 126h64q6 -75 82 -75t82 75h64zM436 492l-224 -611q-34 -92 -131 -92h-31v64h22q35 0 51.5 12t29.5 49l35 96l-177 482h78l135 -395l134 395h78z" />
    <glyph glyph-name="afii10193" unicode="&#x45f;" horiz-adv-x="563" 
d="M472 0h-156v-147h-70v147h-155v492h71v-430h238v430h72v-492z" />
    <glyph glyph-name="afii10050" unicode="&#x490;" horiz-adv-x="569" 
d="M538 644h-352v-644h-76v712h353v172h75v-240z" />
    <glyph glyph-name="afii10098" unicode="&#x491;" horiz-adv-x="417" 
d="M406 430h-240v-430h-72v492h242v142h70v-204z" />
    <glyph glyph-name="endash" unicode="&#x2013;" horiz-adv-x="522" 
d="M470 236h-418v67h418v-67z" />
    <glyph glyph-name="emdash" unicode="&#x2014;" horiz-adv-x="914" 
d="M838 236h-762v68h762v-68z" />
    <glyph glyph-name="afii00208" unicode="&#x2015;" horiz-adv-x="914" 
d="M838 236h-762v68h762v-68z" />
    <glyph glyph-name="quoteleft" unicode="&#x2018;" horiz-adv-x="263" 
d="M175 628h-87v84l87 79v-163z" />
    <glyph glyph-name="quoteright" unicode="&#x2019;" horiz-adv-x="263" 
d="M175 628l-87 -79v163h87v-84z" />
    <glyph glyph-name="quotesinglbase" unicode="&#x201a;" horiz-adv-x="263" 
d="M175 0l-87 -79v163h87v-84z" />
    <glyph glyph-name="quotedblleft" unicode="&#x201c;" horiz-adv-x="434" 
d="M346 628h-88v84l88 79v-163zM175 628h-87v84l87 79v-163z" />
    <glyph glyph-name="quotedblright" unicode="&#x201d;" horiz-adv-x="434" 
d="M346 628l-88 -79v163h88v-84zM175 628l-87 -79v163h87v-84z" />
    <glyph glyph-name="quotedblbase" unicode="&#x201e;" horiz-adv-x="434" 
d="M346 0l-88 -79v163h88v-84zM175 0l-87 -79v163h87v-84z" />
    <glyph glyph-name="dagger" unicode="&#x2020;" horiz-adv-x="605" 
d="M531 445h-194v-445h-72v445h-191v64h191v203h72v-203h194v-64z" />
    <glyph glyph-name="daggerdbl" unicode="&#x2021;" horiz-adv-x="605" 
d="M531 -16h-194v-204h-72v204h-191v64h191v397h-191v64h191v203h72v-203h194v-64h-194v-397h194v-64z" />
    <glyph glyph-name="bullet" unicode="&#x2022;" horiz-adv-x="532" 
d="M429 334q0 -68 -47.5 -115.5t-115.5 -47.5t-115.5 47.5t-47.5 115.5t47.5 115.5t115.5 47.5t115.5 -47.5t47.5 -115.5z" />
    <glyph glyph-name="ellipsis" unicode="&#x2026;" horiz-adv-x="757" 
d="M669 0h-92v92h92v-92zM180 0h-92v92h92v-92zM424 0h-92v92h92v-92z" />
    <glyph glyph-name="perthousand" unicode="&#x2030;" horiz-adv-x="1179" 
d="M1115 128q0 -61 -38 -98t-97 -37t-97 37t-38 98v105q0 61 38 98t97 37t97 -37t38 -98v-105zM769 128q0 -61 -38 -98t-97 -37t-97 37t-38 98v105q0 61 38 98t97 37t97 -37t38 -98v-105zM335 479q0 -60 -38 -97t-97 -37t-97 37t-38 97v105q0 61 38 98t97 37t97 -37t38 -98
v-105zM614 712l-334 -712h-60l334 712h60zM712 130v101q0 87 -78 87t-78 -87v-101q0 -87 78 -87t78 87zM1058 130v101q0 87 -78 87t-78 -87v-101q0 -87 78 -87t78 87zM278 481v101q0 87 -78 87t-78 -87v-101q0 -86 78 -86t78 86z" />
    <glyph glyph-name="guilsinglleft" unicode="&#x2039;" horiz-adv-x="328" 
d="M250 58l-210 210l210 210v-90l-120 -120l120 -121v-89z" />
    <glyph glyph-name="guilsinglright" unicode="&#x203a;" horiz-adv-x="328" 
d="M288 268l-210 -210v89l121 121l-121 120v90z" />
    <glyph glyph-name="fraction" unicode="&#x2044;" horiz-adv-x="185" 
d="M289 712l-333 -712h-60l333 712h60z" />
    <glyph glyph-name="Euro" unicode="&#x20ac;" horiz-adv-x="678" 
d="M608 206q-18 -100 -84.5 -156t-162.5 -56q-107 0 -181 74q-36 36 -49.5 79t-16.5 113h-67v50h66v98h-66v49h67q3 67 17 109.5t49 77.5q74 74 181 74q97 0 163 -56t84 -156h-77q-14 66 -59 105t-111 39q-73 0 -123 -50q-24 -25 -34 -56t-13 -87h219v-49h-221v-98h221v-50
h-219q2 -59 12 -91t35 -57q50 -50 123 -50q66 0 112 39t60 105h75z" />
    <glyph glyph-name="afii61352" unicode="&#x2116;" horiz-adv-x="947" 
d="M553 0h-67l-334 574v-574h-71v712h67l334 -573v573h71v-712zM888 269h-269v57h269v-57zM830 541q0 79 -23 101q-19 21 -52 21q-32 0 -53 -21q-23 -23 -23 -101t23 -101q21 -21 53 -21q33 0 52 21q23 22 23 101zM891 540q0 -98 -41 -139q-35 -37 -95 -37q-59 0 -96 37
q-41 41 -41 139t41 139q37 37 96 37q60 0 95 -37q41 -41 41 -139z" />
    <glyph glyph-name="trademark" unicode="&#x2122;" horiz-adv-x="839" 
d="M781 285h-57v308l-102 -202h-56l-102 202v-308h-58v427h58l130 -259l130 259h57v-427zM331 659h-119v-374h-58v374h-118v53h295v-53z" />
    <glyph glyph-name="uni2126" unicode="&#x2126;" horiz-adv-x="650" 
d="M574 0h-195v64q64 30 92 76q16 26 21 73.5t5 140.5q0 118 -8.5 165.5t-40.5 79.5q-51 51 -123 51t-123 -51q-32 -33 -41 -80.5t-9 -164.5q0 -171 27 -214q28 -46 92 -76v-64h-195v67h82q-36 30 -55 67q-13 25 -19 63t-7 65t-1 79v15q0 131 10.5 186.5t56.5 101.5
q74 74 182 74t182 -74q46 -46 56.5 -101.5t10.5 -186.5q0 -133 -12 -180q-6 -24 -15 -42q-18 -36 -56 -67h83v-67z" />
    <glyph glyph-name="arrowleft" unicode="&#x2190;" horiz-adv-x="1027" 
d="M455 -130l-399 399l399 399h94l-365 -364h789v-70h-789l365 -364h-94z" />
    <glyph glyph-name="arrowup" unicode="&#x2191;" horiz-adv-x="1027" 
d="M115 328l399 399l399 -399v-94l-364 365v-789h-70v789l-364 -365v94z" />
    <glyph glyph-name="arrowright" unicode="&#x2192;" horiz-adv-x="1027" 
d="M480 -130l365 364h-789v70h789l-365 364h94l399 -399l-399 -399h-94z" />
    <glyph glyph-name="arrowdown" unicode="&#x2193;" horiz-adv-x="1027" 
d="M913 208l-399 -399l-399 399v94l364 -365v789h70v-789l364 365v-94z" />
    <glyph glyph-name="uni2196" unicode="&#x2196;" horiz-adv-x="1027" 
d="M189 28v565h565l66 -66h-515l558 -558l-50 -50l-557 558v-515z" />
    <glyph glyph-name="uni2197" unicode="&#x2197;" horiz-adv-x="1027" 
d="M298 593h565v-565l-66 -66v515l-558 -558l-50 50l558 557h-515z" />
    <glyph glyph-name="uni2198" unicode="&#x2198;" horiz-adv-x="1027" 
d="M842 -67h-564l-66 66l515 -1l-558 558l50 50l558 -558l-1 517l66 -68v-564z" />
    <glyph glyph-name="uni2199" unicode="&#x2199;" horiz-adv-x="1027" 
d="M858 556l-558 -558l515 1l-66 -66h-564v564l66 68l-1 -517l558 558z" />
    <glyph glyph-name="partialdiff" unicode="&#x2202;" horiz-adv-x="544" 
d="M453 244q0 -136 -57 -195q-52 -55 -136 -55q-85 0 -137 55q-57 59 -57 195q0 140 57 198q51 53 130 53q81 0 128 -58v70q0 64 -33.5 106.5t-101.5 42.5q-40 0 -63.5 -11.5t-54.5 -38.5l-46 46q40 36 76 51t90 15q98 0 151.5 -59t53.5 -157v-258zM381 244q0 112 -37 151
q-34 36 -84 36q-51 0 -85 -36q-37 -39 -37 -151q0 -111 37 -150q34 -36 85 -36q50 0 84 36q37 39 37 150z" />
    <glyph glyph-name="uni2206" unicode="&#x2206;" horiz-adv-x="603" 
d="M594 0h-586l262 712h63zM495 66l-193 537l-194 -537h387z" />
    <glyph glyph-name="product" unicode="&#x220f;" horiz-adv-x="696" 
d="M593 -220h-76v912h-338v-912h-76v980h490v-980z" />
    <glyph glyph-name="summation" unicode="&#x2211;" horiz-adv-x="551" 
d="M500 -220h-443v65l202 438l-201 413v64h441v-68h-353l180 -375v-69l-182 -400h356v-68z" />
    <glyph glyph-name="minus" unicode="&#x2212;" horiz-adv-x="522" 
d="M470 236h-418v67h418v-67z" />
    <glyph glyph-name="uni2219" unicode="&#x2219;" horiz-adv-x="270" 
d="M182 223h-94v94h94v-94z" />
    <glyph glyph-name="radical" unicode="&#x221a;" horiz-adv-x="562" 
d="M532 644h-89l-211 -644h-61l-163 492h79l115 -356l184 576h146v-68z" />
    <glyph glyph-name="infinity" unicode="&#x221e;" horiz-adv-x="808" 
d="M740 267q0 -69 -43.5 -114t-114.5 -45q-51 0 -92 24.5t-86 79.5q-45 -55 -86 -80t-91 -25q-71 0 -115.5 45.5t-44.5 114.5t44.5 114.5t115.5 45.5q49 0 90.5 -25.5t86.5 -80.5q46 56 86.5 81t91.5 25q71 0 114.5 -45.5t43.5 -114.5zM358 266q-41 50 -68 72t-61 22
q-41 0 -67 -26t-26 -68t26 -67.5t67 -25.5q34 0 61.5 22t67.5 71zM671 266q0 42 -25.5 67.5t-66.5 25.5q-34 0 -62 -22t-68 -71q40 -49 68 -71t62 -22q41 0 66.5 25.5t25.5 67.5z" />
    <glyph glyph-name="uni2224" unicode="&#x2224;" horiz-adv-x="270" 
d="M182 223h-94v94h94v-94z" />
    <glyph glyph-name="logicaland" unicode="&#x2227;" horiz-adv-x="270" 
d="M182 223h-94v94h94v-94z" />
    <glyph glyph-name="integral" unicode="&#x222b;" horiz-adv-x="372" 
d="M334 653h-38q-73 0 -73 -77v-654q0 -64 -36 -102t-100 -38h-50v62h39q73 0 73 77v654q0 64 36 102t100 38h49v-62z" />
    <glyph glyph-name="approxequal" unicode="&#x2248;" horiz-adv-x="539" 
d="M490 189q-41 -41 -67.5 -54.5t-61.5 -13.5q-37 0 -106 31q-52 24 -77 24q-22 0 -39 -8.5t-45 -36.5l-45 45q41 41 67.5 54.5t61.5 13.5q37 0 106 -31q52 -24 77 -24q22 0 39 8.5t45 36.5zM490 366q-41 -41 -67.5 -54.5t-61.5 -13.5q-34 0 -106 32q-50 23 -78 23
q-23 0 -39.5 -8t-44.5 -36l-44 44q41 41 67.5 55t61.5 14q33 0 105 -32q50 -23 78 -23q23 0 39.5 8t44.5 36z" />
    <glyph glyph-name="notequal" unicode="&#x2260;" horiz-adv-x="537" 
d="M485 151h-284l-103 -111l-46 40l67 71h-67v66h126l99 103h-225v67h284l104 111l45 -41l-67 -70h67v-67h-126l-98 -103h224v-66z" />
    <glyph glyph-name="lessequal" unicode="&#x2264;" horiz-adv-x="522" 
d="M426 134l-331 168v65l331 168v-77l-250 -124l250 -123v-77zM426 -16l-331 168v77l331 -168v-77z" />
    <glyph glyph-name="greaterequal" unicode="&#x2265;" horiz-adv-x="522" 
d="M426 302l-331 -168v77l250 123l-250 124v77l331 -168v-65zM426 152l-331 -168v77l331 168v-77z" />
    <glyph glyph-name="dotmath" unicode="&#x22c5;" horiz-adv-x="270" 
d="M182 223h-94v94h94v-94z" />
    <glyph glyph-name="lozenge" unicode="&#x25ca;" horiz-adv-x="649" 
d="M582 352l-257 -364l-258 364l258 364zM501 352l-176 253l-177 -253l177 -255z" />
    <glyph glyph-name="parenleft.case" horiz-adv-x="298" 
d="M234 -45l-49 -49q-55 55 -72 86q-21 39 -21 103v522q0 65 21 103q17 31 72 86l49 -49q-43 -43 -54 -65q-16 -32 -16 -81v-510q0 -49 16 -81q11 -22 54 -65z" />
    <glyph glyph-name="parenright.case" horiz-adv-x="298" 
d="M205 95q0 -66 -20 -103q-17 -31 -72 -86l-51 51q45 45 55 65q14 28 14 79v510q0 51 -14 79q-10 20 -55 65l51 51q55 -55 72 -86q20 -37 20 -103v-522z" />
    <glyph glyph-name="hyphen.case" horiz-adv-x="426" 
d="M350 322h-274v67h274v-67z" />
    <glyph glyph-name="bracketleft.case" horiz-adv-x="313" 
d="M269 -74h-177v860h177v-64h-105v-732h105v-64z" />
    <glyph glyph-name="bracketright.case" horiz-adv-x="313" 
d="M221 -74h-177v62h108v736h-108v62h177v-860z" />
    <glyph glyph-name="braceleft.case" horiz-adv-x="354" 
d="M305 -74h-37q-71 0 -101 30t-30 99v191q0 42 -18 60t-45 18h-26v64h26q27 0 45 18t18 60v191q0 69 30 99t101 30h37v-64h-23q-46 0 -59 -13q-14 -14 -14 -65v-188q0 -40 -16 -62.5t-47 -37.5q31 -15 47 -37.5t16 -62.5v-188q0 -51 14 -65q13 -13 59 -13h23v-64z" />
    <glyph glyph-name="braceright.case" horiz-adv-x="354" 
d="M305 324h-25q-27 0 -45 -18t-18 -60v-191q0 -69 -30 -99t-101 -30h-38v64h24q45 0 58 13q15 15 15 65v188q0 40 16 62.5t47 37.5q-31 15 -47 37.5t-16 62.5v188q0 50 -15 65q-13 13 -58 13h-24v64h38q71 0 101 -30t30 -99v-191q0 -42 18 -60t45 -18h25v-64z" />
    <glyph glyph-name="guillemotleft.case" horiz-adv-x="554" 
d="M250 146l-210 210l210 210v-90l-120 -120l120 -121v-89zM476 146l-210 210l210 210v-90l-121 -120l121 -121v-89z" />
    <glyph glyph-name="uni00AD.case" horiz-adv-x="426" 
d="M350 322h-274v67h274v-67z" />
    <glyph glyph-name="guillemotright.case" horiz-adv-x="554" 
d="M514 356l-210 -210v89l120 121l-120 120v90zM288 356l-210 -210v89l121 121l-121 120v90z" />
    <glyph glyph-name="endash.case" horiz-adv-x="522" 
d="M470 322h-418v67h418v-67z" />
    <glyph glyph-name="emdash.case" horiz-adv-x="914" 
d="M838 322h-762v68h762v-68z" />
    <glyph glyph-name="guilsinglleft.case" horiz-adv-x="328" 
d="M250 146l-210 210l210 210v-90l-120 -120l120 -121v-89z" />
    <glyph glyph-name="guilsinglright.case" horiz-adv-x="328" 
d="M288 356l-210 -210v89l121 121l-121 120v90z" />
    <glyph glyph-name="grave.lc" 
d="M304 594h-66l-108 153h86z" />
    <glyph glyph-name="dieresis.lc" 
d="M407 602h-72v89h72v-89zM195 602h-72v89h72v-89z" />
    <glyph glyph-name="macron.lc" horiz-adv-x="500" 
d="M401 602h-302v57h302v-57z" />
    <glyph glyph-name="acute.lc" 
d="M390 747l-108 -153h-66l88 153h86z" />
    <glyph glyph-name="circumflex.lc" 
d="M424 594h-69l-90 104l-90 -104h-69l125 153h68z" />
    <glyph glyph-name="caron.lc" horiz-adv-x="459" 
d="M395 747l-125 -153h-68l-125 153h69l90 -105l90 105h69z" />
    <glyph glyph-name="breve.lc" horiz-adv-x="500" 
d="M415 729q-12 -139 -165 -139t-165 139h56q5 -40 34 -61.5t75 -21.5t75 21.5t34 61.5h56z" />
    <glyph glyph-name="dotaccent.lc" horiz-adv-x="500" 
d="M212 610v77h75v-77h-75z" />
    <glyph glyph-name="ring.lc" horiz-adv-x="526" 
d="M370 687q0 -49 -34.5 -84t-83.5 -35t-83.5 35t-34.5 84t34.5 83.5t83.5 34.5t83.5 -34.5t34.5 -83.5zM321 687q0 28 -20 48t-49 20t-49 -20t-20 -48q0 -29 20.5 -49t48.5 -20t48.5 20t20.5 49z" />
    <glyph glyph-name="tilde.lc" 
d="M422 658q-50 -51 -95 -51q-30 0 -71 24q-35 20 -56 20q-27 0 -59 -32l-37 36q51 51 95 51q33 0 71 -24q35 -20 56 -20q27 0 59 32z" />
    <glyph glyph-name="hungarumlaut.lc" horiz-adv-x="500" 
d="M304 747l-108 -153h-66l89 153h85zM467 747l-109 -153h-65l89 153h85z" />
    <glyph glyph-name="brevecyr.lc" horiz-adv-x="500" 
d="M396 704q-8 -126 -146 -126t-146 126h64q6 -75 82 -75t82 75h64z" />
    <glyph glyph-name="diedot.lc" 
d="M195 602h-72v89h72v-89z" />
    <glyph glyph-name="zero.lf" horiz-adv-x="522" 
d="M456 190q0 -87 -55.5 -141.5t-139.5 -54.5t-139.5 54.5t-55.5 141.5v332q0 87 55.5 141.5t139.5 54.5t139.5 -54.5t55.5 -141.5v-332zM384 194v324q0 60 -32.5 98t-90.5 38t-90.5 -38t-32.5 -98v-324q0 -60 32.5 -98t90.5 -38t90.5 38t32.5 98z" />
    <glyph glyph-name="one.lf" horiz-adv-x="372" 
d="M256 0h-72v632l-133 -117v82l133 115h72v-712z" />
    <glyph glyph-name="two.lf" horiz-adv-x="488" 
d="M434 0h-393v64l281 357q40 52 40 105q0 58 -33 93t-91 35q-54 0 -89 -32t-35 -97h-72q0 85 54 139t142 54t142 -52.5t54 -139.5q0 -41 -13 -73t-44 -71l-249 -318h306v-64z" />
    <glyph glyph-name="three.lf" horiz-adv-x="512" 
d="M456 194q0 -95 -59 -148t-150 -53q-89 0 -147 47.5t-62 140.5h72q4 -63 42.5 -93.5t94.5 -30.5q59 0 98 37t39 101q0 138 -140 138h-15v63h15q64 0 95.5 33.5t31.5 95.5t-35 96t-89 34q-56 0 -89.5 -32t-38.5 -87h-72q6 85 61.5 134t138.5 49q87 0 141.5 -53t54.5 -140
q0 -114 -96 -158q109 -41 109 -174z" />
    <glyph glyph-name="four.lf" horiz-adv-x="518" 
d="M478 113h-87v-113h-71v113h-284v65l257 534h77l-257 -534h207v202h71v-202h87v-65z" />
    <glyph glyph-name="five.lf" horiz-adv-x="517" 
d="M453 235q0 -64 -11 -109t-46 -80q-53 -53 -142 -53q-92 0 -143 51q-44 45 -50 124h72q14 -111 121 -111q55 0 88 33q39 39 39 145q0 37 -4.5 64.5t-16.5 54t-37 40.5t-62 14q-46 0 -76.5 -19t-41.5 -51h-65v374h360v-64h-295v-226q44 49 128 49q78 0 123 -45
q59 -59 59 -191z" />
    <glyph glyph-name="six.lf" horiz-adv-x="489" 
d="M442 205q0 -92 -54 -151.5t-143 -59.5q-90 0 -144 56t-54 149q0 70 45 160l175 353h74l-159 -320q33 15 75 15q83 0 134 -56.5t51 -145.5zM370 202q0 62 -33.5 103t-92.5 41q-57 0 -91 -39t-34 -105q0 -65 34 -104.5t91 -39.5t91.5 39.5t34.5 104.5z" />
    <glyph glyph-name="seven.lf" horiz-adv-x="471" 
d="M436 648l-247 -648h-76l247 648h-248v-112h-71v176h395v-64z" />
    <glyph glyph-name="eight.lf" horiz-adv-x="538" 
d="M479 196q0 -89 -60 -145.5t-150 -56.5t-150 56.5t-60 145.5q0 112 107 173q-93 53 -93 158q0 83 55.5 137t140.5 54t140.5 -54t55.5 -137q0 -105 -92 -158q106 -60 106 -173zM407 197q0 59 -39.5 99t-98.5 40t-98.5 -40t-39.5 -99t39.5 -99t98.5 -40t98.5 40t39.5 99z
M393 526q0 56 -34.5 92t-89.5 36t-89.5 -36t-34.5 -92t34.5 -91.5t89.5 -35.5t89.5 35.5t34.5 91.5z" />
    <glyph glyph-name="nine.lf" horiz-adv-x="489" 
d="M442 513q0 -70 -45 -160l-175 -353h-75l160 320q-33 -15 -76 -15q-82 0 -133 56.5t-51 145.5q0 92 54 151.5t143 59.5q90 0 144 -56t54 -149zM370 510q0 65 -34.5 104.5t-91.5 39.5t-91 -39.5t-34 -104.5q0 -62 33 -103t92 -41q57 0 91.5 39t34.5 105z" />
    <glyph glyph-name="zero.osf" horiz-adv-x="522" 
d="M456 190q0 -87 -55.5 -141.5t-139.5 -54.5t-139.5 54.5t-55.5 141.5v217q0 87 55.5 141.5t139.5 54.5t139.5 -54.5t55.5 -141.5v-217zM384 194v209q0 60 -32.5 98t-90.5 38t-90.5 -38t-32.5 -98v-209q0 -60 32.5 -98t90.5 -38t90.5 38t32.5 98z" />
    <glyph glyph-name="one.osf" horiz-adv-x="373" 
d="M256 0h-72v517l-133 -117v82l133 115h72v-597z" />
    <glyph glyph-name="two.osf" horiz-adv-x="506" 
d="M450 0h-409v64l251 242q68 66 68 134q0 51 -34.5 85t-87.5 34q-52 0 -87.5 -33.5t-35.5 -87.5h-72q0 80 55.5 132.5t139.5 52.5q86 0 140 -52t54 -130q0 -87 -92 -177l-204 -200h314v-64z" />
    <glyph glyph-name="three.osf" horiz-adv-x="515" 
d="M456 78q0 -95 -59 -148t-150 -53q-89 0 -147 47.5t-62 140.5h72q4 -63 42.5 -93t94.5 -30q60 0 98.5 36.5t38.5 100.5q0 138 -140 138h-14v63h14q64 0 95.5 33.5t31.5 95.5t-35 96t-89 34q-56 0 -89.5 -31.5t-38.5 -86.5h-72q6 84 61.5 133t138.5 49q87 0 141.5 -53
t54.5 -140q0 -114 -96 -158q109 -41 109 -174z" />
    <glyph glyph-name="four.osf" horiz-adv-x="541" 
d="M501 30h-91v-153h-71v153h-303v66l264 533h77l-265 -533h227v205h71v-205h91v-66z" />
    <glyph glyph-name="five.osf" horiz-adv-x="517" 
d="M453 120q0 -64 -11 -109t-46 -80q-53 -53 -142 -53q-92 0 -143 51q-44 45 -50 124h72q14 -111 121 -111q55 0 88 33q39 39 39 145q0 37 -4.5 64.5t-16.5 54t-37 40.5t-62 14q-46 0 -76.5 -19t-41.5 -51h-65v374h360v-64h-295v-226q44 49 128 49q78 0 123 -45
q59 -59 59 -191z" />
    <glyph glyph-name="six.osf" horiz-adv-x="527" 
d="M476 220q0 -99 -58 -162.5t-154 -63.5q-98 0 -155.5 60t-57.5 160q0 88 52 179l190 335h76l-180 -309q37 19 87 19q90 0 145 -61t55 -157zM404 216q0 69 -37.5 115.5t-103.5 46.5q-64 0 -102 -44t-38 -118q0 -73 38 -117t102 -44t102.5 44t38.5 117z" />
    <glyph glyph-name="seven.osf" horiz-adv-x="502" 
d="M467 533l-291 -656h-76l290 656h-274v-112h-71v176h422v-64z" />
    <glyph glyph-name="eight.osf" horiz-adv-x="538" 
d="M479 196q0 -89 -60 -145.5t-150 -56.5t-150 56.5t-60 145.5q0 112 107 173q-94 54 -94 158q0 83 56 137t141 54t141 -54t56 -137q0 -104 -94 -158q107 -61 107 -173zM407 197q0 59 -39.5 99t-98.5 40t-98.5 -40t-39.5 -99t39.5 -99t98.5 -40t98.5 40t39.5 99zM394 526
q0 56 -35 92t-90 36t-90 -36t-35 -92t35 -91.5t90 -35.5t90 35.5t35 91.5z" />
    <glyph glyph-name="nine.osf" horiz-adv-x="527" 
d="M476 383q0 -88 -52 -179l-190 -335h-76l180 309q-37 -19 -87 -19q-90 0 -145 61t-55 157q0 99 58 162.5t154 63.5q98 0 155.5 -60t57.5 -160zM404 381q0 73 -38 117t-102 44t-102.5 -44t-38.5 -117q0 -69 37.5 -115.5t103.5 -46.5q64 0 102 44t38 118z" />
    <glyph glyph-name="exclam.ss01" horiz-adv-x="316" 
d="M216 712l-13 -512h-58l-13 512h84zM224 47q0 -21 -14.5 -35.5t-35.5 -14.5t-36 14.5t-15 35.5t15 35.5t36 14.5t35.5 -14.5t14.5 -35.5z" />
    <glyph glyph-name="period.ss01" horiz-adv-x="272" 
d="M193 54q0 -23 -17 -40t-40 -17t-40 17t-17 40t17 40t40 17t40 -17t17 -40z" />
    <glyph glyph-name="colon.ss01" horiz-adv-x="299" 
d="M220 345q0 -23 -17 -40t-40 -17t-40 17t-17 40t17 40t40 17t40 -17t17 -40zM220 54q0 -23 -17 -40t-40 -17t-40 17t-17 40t17 40t40 17t40 -17t17 -40z" />
    <glyph glyph-name="semicolon.ss01" horiz-adv-x="297" 
d="M207 -65l-88 -79v232h88v-153zM220 345q0 -23 -17 -40t-40 -17t-40 17t-17 40t17 40t40 17t40 -17t17 -40z" />
    <glyph glyph-name="question.ss01" horiz-adv-x="497" 
d="M451 536q0 -55 -45 -121l-82 -118q-18 -27 -18 -58v-39h-72v40q0 50 31 94l81 117q33 49 33 85q0 51 -32.5 84.5t-82.5 33.5q-52 0 -84 -35t-32 -84h-72q0 77 54 130t134 53t133.5 -51.5t53.5 -130.5zM319 47q0 -21 -14.5 -35.5t-35.5 -14.5t-35.5 14.5t-14.5 35.5
t14.5 35.5t35.5 14.5t35.5 -14.5t14.5 -35.5z" />
    <glyph glyph-name="at.ss01" horiz-adv-x="950" 
d="M886 322q0 -121 -83 -207.5t-208 -86.5h-62l12 57q-51 -63 -123 -63q-63 0 -101.5 36t-38.5 105q0 39 9 84q24 128 83 179q50 45 120 45q85 0 112 -67l13 61h64l-78 -388q95 1 157 74.5t62 170.5q0 132 -87 214.5t-224 82.5q-155 0 -264 -110t-109 -267
q0 -167 104.5 -273.5t275.5 -106.5h50l-11 -54h-50q-189 0 -311 123t-122 311q0 183 127 309t310 126q166 0 269.5 -98.5t103.5 -256.5zM581 321q0 47 -24 69t-59 22q-45 0 -80 -33q-41 -39 -59 -133q-9 -47 -9 -74q0 -47 23.5 -69t58.5 -22q46 0 82 34q40 38 58 132
q9 47 9 74z" />
    <glyph glyph-name="C.ss01" horiz-adv-x="587" 
d="M525 81q-90 -87 -200 -87q-108 0 -182 74q-46 46 -56.5 101.5t-10.5 186.5t10.5 186.5t56.5 101.5q74 74 182 74q110 0 200 -87l-51 -51q-37 36 -69.5 53t-79.5 17q-75 0 -123 -50q-32 -33 -41 -80t-9 -164t9 -164t41 -80q48 -50 123 -50q47 0 79.5 17t69.5 53z" />
    <glyph glyph-name="G.ss01" horiz-adv-x="645" 
d="M574 260q0 -119 -61 -184q-76 -82 -188 -82q-108 0 -182 74q-46 46 -56.5 101.5t-10.5 186.5t10.5 186.5t56.5 101.5q74 74 182 74q67 0 114.5 -23t98.5 -74l-51 -51q-42 42 -76.5 61t-85.5 19q-74 0 -123 -51q-32 -33 -41 -79.5t-9 -163.5t9 -164t41 -80q48 -50 123 -50
q84 0 134 61q39 46 39 130v53h-173v67h249v-113z" />
    <glyph glyph-name="i.ss01" horiz-adv-x="253" 
d="M162 0h-72v492h72v-492zM176 677q0 -20 -15 -34.5t-35 -14.5t-34.5 14.5t-14.5 34.5t14.5 34.5t34.5 14.5t35 -14.5t15 -34.5z" />
    <glyph glyph-name="j.ss01" horiz-adv-x="253" 
d="M162 -89q0 -59 -31.5 -95.5t-93.5 -36.5h-52v63h39q36 0 51 17.5t15 54.5v578h72v-581zM176 677q0 -20 -15 -34.5t-35 -14.5t-34.5 14.5t-14.5 34.5t14.5 34.5t34.5 14.5t35 -14.5t15 -34.5z" />
    <glyph glyph-name="exclamdown.ss01" horiz-adv-x="316" 
d="M191 -220h-84l13 512h58zM199 445q0 -21 -14.5 -35.5t-35.5 -14.5t-35.5 14.5t-14.5 35.5t14.5 35.5t35.5 14.5t35.5 -14.5t14.5 -35.5z" />
    <glyph glyph-name="dieresis.ss01" horiz-adv-x="500" 
d="M401 645q0 -19 -13 -32t-32 -13t-32 13t-13 32t13 32.5t32 13.5t32 -13.5t13 -32.5zM189 645q0 -19 -13 -32t-32 -13t-32 13t-13 32t13 32.5t32 13.5t32 -13.5t13 -32.5z" />
    <glyph glyph-name="periodcentered.ss01" horiz-adv-x="272" 
d="M193 267q0 -23 -17 -40t-40 -17t-40 17t-17 40t17 39.5t40 16.5t40 -16.5t17 -39.5z" />
    <glyph glyph-name="cedilla.ss01" horiz-adv-x="500" 
d="M322 -133q0 -42 -28.5 -69t-75.5 -27v45q23 0 38.5 14.5t15.5 36.5t-15.5 36.5t-38.5 14.5v45q47 0 75.5 -27t28.5 -69z" />
    <glyph glyph-name="questiondown.ss01" horiz-adv-x="497" 
d="M427 -43q0 -77 -54 -130t-134 -53t-133.5 51.5t-53.5 131.5q0 54 45 120l82 118q18 27 18 58v40h72v-41q0 -50 -31 -94l-81 -116q-33 -49 -33 -85q0 -51 32.5 -84.5t82.5 -33.5q52 0 84 34.5t32 83.5h72zM284 445q0 -21 -14.5 -35.5t-35.5 -14.5t-36 14.5t-15 35.5
t15 35.5t36 14.5t35.5 -14.5t14.5 -35.5z" />
    <glyph glyph-name="Adieresis.ss01" horiz-adv-x="611" 
d="M599 0h-81l-57 161h-311l-57 -161h-81l262 712h64zM439 227l-132 376l-134 -376h266zM453 832q0 -19 -13 -32t-32 -13t-32 13t-13 32t13 32.5t32 13.5t32 -13.5t13 -32.5zM241 832q0 -19 -13 -32t-32 -13t-32 13t-13 32t13 32.5t32 13.5t32 -13.5t13 -32.5z" />
    <glyph glyph-name="Ccedilla.ss01" horiz-adv-x="587" 
d="M525 81q-90 -87 -200 -87q-108 0 -182 74q-46 46 -56.5 101.5t-10.5 186.5t10.5 186.5t56.5 101.5q74 74 182 74q110 0 200 -87l-51 -51q-37 36 -69.5 53t-79.5 17q-75 0 -123 -50q-32 -33 -41 -80t-9 -164t9 -164t41 -80q48 -50 123 -50q47 0 79.5 17t69.5 53zM377 -133
q0 -42 -28.5 -69t-75.5 -27v45q23 0 38.5 14.5t15.5 36.5t-15.5 36.5t-38.5 14.5v45q47 0 75.5 -27t28.5 -69z" />
    <glyph glyph-name="Edieresis.ss01" horiz-adv-x="600" 
d="M545 0h-442v712h442v-68h-366v-251h312v-68h-312v-257h366v-68zM464 832q0 -19 -13 -32t-32 -13t-32 13t-13 32t13 32.5t32 13.5t32 -13.5t13 -32.5zM252 832q0 -19 -13 -32t-32 -13t-32 13t-13 32t13 32.5t32 13.5t32 -13.5t13 -32.5z" />
    <glyph glyph-name="Idieresis.ss01" horiz-adv-x="282" 
d="M179 0h-76v712h76v-712zM294 832q0 -19 -13 -32t-32 -13t-32 13t-13 32t13 32.5t32 13.5t32 -13.5t13 -32.5zM82 832q0 -19 -13 -32t-32 -13t-32 13t-13 32t13 32.5t32 13.5t32 -13.5t13 -32.5z" />
    <glyph glyph-name="Odieresis.ss01" horiz-adv-x="650" 
d="M574 356q0 -131 -10.5 -186.5t-56.5 -101.5q-74 -74 -182 -74t-182 74q-46 46 -56.5 101.5t-10.5 186.5t10.5 186.5t56.5 101.5q74 74 182 74t182 -74q46 -46 56.5 -101.5t10.5 -186.5zM498 356q0 117 -9 163.5t-41 79.5q-49 51 -123 51t-123 -51q-32 -33 -41 -79.5
t-9 -163.5t9 -163.5t41 -79.5q49 -51 123 -51t123 51q32 33 41 79.5t9 163.5zM476 832q0 -19 -13 -32t-32 -13t-32 13t-13 32t13 32.5t32 13.5t32 -13.5t13 -32.5zM264 832q0 -19 -13 -32t-32 -13t-32 13t-13 32t13 32.5t32 13.5t32 -13.5t13 -32.5z" />
    <glyph glyph-name="Udieresis.ss01" horiz-adv-x="683" 
d="M590 235q0 -106 -70.5 -173.5t-178.5 -67.5t-178 67.5t-70 173.5v477h76v-471q0 -81 47 -130t125 -49t125.5 49t47.5 130v471h76v-477zM492 832q0 -19 -13 -32t-32 -13t-32 13t-13 32t13 32.5t32 13.5t32 -13.5t13 -32.5zM280 832q0 -19 -13 -32t-32 -13t-32 13t-13 32
t13 32.5t32 13.5t32 -13.5t13 -32.5z" />
    <glyph glyph-name="adieresis.ss01" horiz-adv-x="526" 
d="M441 0h-72v47q-30 -30 -61 -41.5t-81 -11.5q-95 0 -139 45q-37 37 -37 100q0 66 44.5 104t125.5 38h148v47q0 55 -30 81.5t-96 26.5q-47 0 -74.5 -12.5t-49.5 -43.5l-49 45q32 41 72 57t102 16q197 0 197 -164v-334zM369 174v53h-138q-110 0 -110 -87q0 -84 113 -84
q76 0 110 33q25 24 25 85zM403 645q0 -19 -13 -32t-32 -13t-32 13t-13 32t13 32.5t32 13.5t32 -13.5t13 -32.5zM191 645q0 -19 -13 -32t-32 -13t-32 13t-13 32t13 32.5t32 13.5t32 -13.5t13 -32.5z" />
    <glyph glyph-name="ccedilla.ss01" horiz-adv-x="490" 
d="M443 67q-38 -41 -74 -57t-88 -16q-97 0 -157.5 65t-60.5 187t60.5 187t157.5 65q52 0 88 -16t74 -57l-49 -46q-28 31 -53 43t-60 12q-75 0 -114 -56q-32 -45 -32 -132t32 -132q39 -56 114 -56q35 0 60 12.5t53 43.5zM322 -133q0 -42 -28.5 -69t-75.5 -27v45
q23 0 38.5 14.5t15.5 36.5t-15.5 36.5t-38.5 14.5v45q47 0 75.5 -27t28.5 -69z" />
    <glyph glyph-name="edieresis.ss01" 
d="M467 227h-332q0 -81 37.5 -125.5t107.5 -44.5q42 0 70.5 13t58.5 43l49 -43q-40 -40 -80 -58t-100 -18q-101 0 -158 62.5t-57 189.5q0 119 54 185.5t148 66.5q95 0 148.5 -64t53.5 -174v-33zM395 281q-3 52 -15 82q-14 34 -45 54t-70 20t-70 -20t-45 -54q-12 -30 -15 -82
h260zM419 645q0 -19 -13 -32t-32 -13t-32 13t-13 32t13 32.5t32 13.5t32 -13.5t13 -32.5zM207 645q0 -19 -13 -32t-32 -13t-32 13t-13 32t13 32.5t32 13.5t32 -13.5t13 -32.5z" />
    <glyph glyph-name="idieresis.ss01" horiz-adv-x="253" 
d="M162 0h-72v492h72v-492zM278 645q0 -19 -13 -32t-32 -13t-32 13t-13 32t13 32.5t32 13.5t32 -13.5t13 -32.5zM66 645q0 -19 -13 -32t-32 -13t-32 13t-13 32t13 32.5t32 13.5t32 -13.5t13 -32.5z" />
    <glyph glyph-name="odieresis.ss01" 
d="M466 246q0 -135 -60 -196q-56 -56 -141 -56t-141 56q-60 61 -60 196t60 196q56 56 141 56t141 -56q60 -61 60 -196zM394 246q0 113 -39 152q-36 36 -90 36q-53 0 -89 -36q-40 -40 -40 -152t40 -152q36 -36 89 -36q54 0 90 36q39 39 39 152zM416 645q0 -19 -13 -32
t-32 -13t-32 13t-13 32t13 32.5t32 13.5t32 -13.5t13 -32.5zM204 645q0 -19 -13 -32t-32 -13t-32 13t-13 32t13 32.5t32 13.5t32 -13.5t13 -32.5z" />
    <glyph glyph-name="divide.ss01" horiz-adv-x="522" 
d="M471 236h-420v67h420v-67zM318 90q0 -23 -17 -40t-40 -17t-40 17t-17 40t17 40t40 17t40 -17t17 -40zM318 449q0 -23 -17 -40t-40 -17t-40 17t-17 40t17 40t40 17t40 -17t17 -40z" />
    <glyph glyph-name="udieresis.ss01" horiz-adv-x="562" 
d="M472 0h-71v55q-53 -61 -139 -61q-81 0 -127 46q-50 49 -50 138v314h72v-303q0 -64 31.5 -97.5t88.5 -33.5t90 34t33 97v303h72v-492zM429 645q0 -19 -13 -32t-32 -13t-32 13t-13 32t13 32.5t32 13.5t32 -13.5t13 -32.5zM217 645q0 -19 -13 -32t-32 -13t-32 13t-13 32
t13 32.5t32 13.5t32 -13.5t13 -32.5z" />
    <glyph glyph-name="ydieresis.ss01" horiz-adv-x="447" 
d="M436 492l-224 -611q-14 -39 -35 -58q-35 -34 -96 -34h-31v64h22q36 0 52.5 13t28.5 48l35 96l-177 482h78l135 -395l134 395h78zM374 645q0 -19 -13 -32t-32 -13t-32 13t-13 32t13 32.5t32 13.5t32 -13.5t13 -32.5zM162 645q0 -19 -13 -32t-32 -13t-32 13t-13 32t13 32.5
t32 13.5t32 -13.5t13 -32.5z" />
    <glyph glyph-name="Aogonek.ss01" horiz-adv-x="611" 
d="M599 0h-81l-57 161h-311l-57 -161h-81l262 712h64zM439 227l-132 376l-134 -376h266zM590 -229q-47 0 -75.5 27t-28.5 69t28.5 69t75.5 27v-45q-23 0 -38.5 -14.5t-15.5 -36.5t15.5 -36.5t38.5 -14.5v-45z" />
    <glyph glyph-name="aogonek.ss01" horiz-adv-x="526" 
d="M441 0h-72v47q-30 -30 -61 -41.5t-81 -11.5q-95 0 -139 45q-37 37 -37 100q0 66 44.5 104t125.5 38h148v47q0 55 -30 81.5t-96 26.5q-47 0 -74.5 -12.5t-49.5 -43.5l-49 45q32 41 72 57t102 16q197 0 197 -164v-334zM369 174v53h-138q-110 0 -110 -87q0 -84 113 -84
q76 0 110 33q25 24 25 85zM431 -229q-47 0 -75.5 27t-28.5 69t28.5 69t75.5 27v-45q-23 0 -38.5 -14.5t-15.5 -36.5t15.5 -36.5t38.5 -14.5v-45z" />
    <glyph glyph-name="Cacute.ss01" horiz-adv-x="587" 
d="M525 81q-90 -87 -200 -87q-108 0 -182 74q-46 46 -56.5 101.5t-10.5 186.5t10.5 186.5t56.5 101.5q74 74 182 74q110 0 200 -87l-51 -51q-37 36 -69.5 53t-79.5 17q-75 0 -123 -50q-32 -33 -41 -80t-9 -164t9 -164t41 -80q48 -50 123 -50q47 0 79.5 17t69.5 53zM431 934
l-108 -153h-66l88 153h86z" />
    <glyph glyph-name="Ccircumflex.ss01" horiz-adv-x="596" 
d="M525 81q-90 -87 -200 -87q-108 0 -182 74q-46 46 -56.5 101.5t-10.5 186.5t10.5 186.5t56.5 101.5q74 74 182 74q110 0 200 -87l-51 -51q-37 36 -69.5 53t-79.5 17q-75 0 -123 -50q-32 -33 -41 -80t-9 -164t9 -164t41 -80q48 -50 123 -50q47 0 79.5 17t69.5 53zM484 781
h-69l-90 104l-90 -104h-69l125 153h68z" />
    <glyph glyph-name="Cdotaccent.ss01" horiz-adv-x="587" 
d="M525 81q-90 -87 -200 -87q-108 0 -182 74q-46 46 -56.5 101.5t-10.5 186.5t10.5 186.5t56.5 101.5q74 74 182 74q110 0 200 -87l-51 -51q-37 36 -69.5 53t-79.5 17q-75 0 -123 -50q-32 -33 -41 -80t-9 -164t9 -164t41 -80q48 -50 123 -50q47 0 79.5 17t69.5 53zM383 834
q0 -19 -13 -32t-31 -13q-19 0 -32.5 13t-13.5 31q0 19 13 32.5t32 13.5t32 -13t13 -32z" />
    <glyph glyph-name="cdotaccent.ss01" horiz-adv-x="490" 
d="M443 67q-38 -41 -74 -57t-88 -16q-97 0 -157.5 65t-60.5 187t60.5 187t157.5 65q52 0 88 -16t74 -57l-49 -46q-28 31 -53 43t-60 12q-75 0 -114 -56q-32 -45 -32 -132t32 -132q39 -56 114 -56q35 0 60 12.5t53 43.5zM328 656q0 -19 -13 -32.5t-32 -13.5t-32 13.5
t-13 31.5q0 19 13 32t31 13q19 0 32.5 -13t13.5 -31z" />
    <glyph glyph-name="Ccaron.ss01" horiz-adv-x="587" 
d="M525 81q-90 -87 -200 -87q-108 0 -182 74q-46 46 -56.5 101.5t-10.5 186.5t10.5 186.5t56.5 101.5q74 74 182 74q110 0 200 -87l-51 -51q-37 36 -69.5 53t-79.5 17q-75 0 -123 -50q-32 -33 -41 -80t-9 -164t9 -164t41 -80q48 -50 123 -50q47 0 79.5 17t69.5 53zM484 934
l-125 -153h-68l-125 153h69l90 -105l90 105h69z" />
    <glyph glyph-name="dcaron.ss01" horiz-adv-x="545" 
d="M455 0h-71v59q-50 -65 -140 -65q-77 0 -120 43q-60 60 -60 209t60 209q43 43 120 43q90 0 139 -63v277h72v-712zM383 246q0 41 -4.5 71t-16.5 58.5t-38 43.5t-64 15t-64 -15t-38.5 -43.5t-17 -58.5t-4.5 -71t4.5 -71t17 -58.5t38.5 -43.5t64 -15t64 15t38 43.5t16.5 58.5
t4.5 71zM620 596l-68 -65v190h68v-125z" />
    <glyph glyph-name="Edotaccent.ss01" horiz-adv-x="600" 
d="M545 0h-442v712h442v-68h-366v-251h312v-68h-312v-257h366v-68zM344 834q0 -19 -13 -32t-31 -13q-19 0 -32.5 13t-13.5 31q0 19 13 32.5t32 13.5t32 -13t13 -32z" />
    <glyph glyph-name="edotaccent.ss01" 
d="M467 227h-332q0 -81 37.5 -125.5t107.5 -44.5q42 0 70.5 13t58.5 43l49 -43q-40 -40 -80 -58t-100 -18q-101 0 -158 62.5t-57 189.5q0 119 54 185.5t148 66.5q95 0 148.5 -64t53.5 -174v-33zM395 281q-3 52 -15 82q-14 34 -45 54t-70 20t-70 -20t-45 -54q-12 -30 -15 -82
h260zM309 656q0 -19 -13 -32.5t-32 -13.5t-32 13.5t-13 31.5q0 19 13 32t31 13q19 0 32.5 -13t13.5 -31z" />
    <glyph glyph-name="Eogonek.ss01" horiz-adv-x="600" 
d="M545 0h-442v712h442v-68h-366v-251h312v-68h-312v-257h366v-68zM533 -229q-47 0 -75.5 27t-28.5 69t28.5 69t75.5 27v-45q-23 0 -38.5 -14.5t-15.5 -36.5t15.5 -36.5t38.5 -14.5v-45z" />
    <glyph glyph-name="eogonek.ss01" 
d="M467 227h-332q0 -81 37.5 -125.5t107.5 -44.5q42 0 70.5 13t58.5 43l49 -43q-40 -40 -80 -58t-100 -18q-101 0 -158 62.5t-57 189.5q0 119 54 185.5t148 66.5q95 0 148.5 -64t53.5 -174v-33zM395 281q-3 52 -15 82q-14 34 -45 54t-70 20t-70 -20t-45 -54q-12 -30 -15 -82
h260zM428 -229q-47 0 -75.5 27t-28.5 69t28.5 69t75.5 27v-45q-23 0 -38.5 -14.5t-15.5 -36.5t15.5 -36.5t38.5 -14.5v-45z" />
    <glyph glyph-name="Gcircumflex.ss01" horiz-adv-x="645" 
d="M574 260q0 -119 -61 -184q-76 -82 -188 -82q-108 0 -182 74q-46 46 -56.5 101.5t-10.5 186.5t10.5 186.5t56.5 101.5q74 74 182 74q67 0 114.5 -23t98.5 -74l-51 -51q-42 42 -76.5 61t-85.5 19q-74 0 -123 -51q-32 -33 -41 -79.5t-9 -163.5t9 -164t41 -80q48 -50 123 -50
q84 0 134 61q39 46 39 130v53h-173v67h249v-113zM484 781h-69l-90 104l-90 -104h-69l125 153h68z" />
    <glyph glyph-name="Gbreve.ss01" horiz-adv-x="645" 
d="M574 260q0 -119 -61 -184q-76 -82 -188 -82q-108 0 -182 74q-46 46 -56.5 101.5t-10.5 186.5t10.5 186.5t56.5 101.5q74 74 182 74q67 0 114.5 -23t98.5 -74l-51 -51q-42 42 -76.5 61t-85.5 19q-74 0 -123 -51q-32 -33 -41 -79.5t-9 -163.5t9 -164t41 -80q48 -50 123 -50
q84 0 134 61q39 46 39 130v53h-173v67h249v-113zM490 928q-12 -139 -165 -139t-165 139h56q5 -40 34 -61.5t75 -21.5t75 21.5t34 61.5h56z" />
    <glyph glyph-name="Gdotaccent.ss01" horiz-adv-x="645" 
d="M574 260q0 -119 -61 -184q-76 -82 -188 -82q-108 0 -182 74q-46 46 -56.5 101.5t-10.5 186.5t10.5 186.5t56.5 101.5q74 74 182 74q67 0 114.5 -23t98.5 -74l-51 -51q-42 42 -76.5 61t-85.5 19q-74 0 -123 -51q-32 -33 -41 -79.5t-9 -163.5t9 -164t41 -80q48 -50 123 -50
q84 0 134 61q39 46 39 130v53h-173v67h249v-113zM388 834q0 -19 -13 -32t-31 -13q-19 0 -32.5 13t-13.5 31q0 19 13 32.5t32 13.5t32 -13t13 -32z" />
    <glyph glyph-name="gdotaccent.ss01" horiz-adv-x="543" 
d="M453 -15q0 -93 -55 -152t-150 -59q-54 0 -90.5 15t-76.5 51l47 46q30 -27 54 -38t64 -11q68 0 101.5 42t33.5 109v77q-50 -64 -138 -64q-75 0 -119 44q-60 60 -60 205t60 205q43 43 120 43q89 0 138 -64v58h71v-507zM381 250q0 39 -4.5 68t-16.5 57.5t-37.5 43.5
t-63.5 15t-64 -15t-38 -43.5t-16.5 -57.5t-4.5 -68t4.5 -68t16.5 -57.5t38 -43.5t64 -15t63.5 15t37.5 43.5t16.5 57.5t4.5 68zM304 656q0 -19 -13 -32.5t-32 -13.5t-32 13.5t-13 31.5q0 19 13 32t31 13q19 0 32.5 -13t13.5 -31z" />
    <glyph glyph-name="Gcommaaccent.ss01" horiz-adv-x="645" 
d="M574 260q0 -119 -61 -184q-76 -82 -188 -82q-108 0 -182 74q-46 46 -56.5 101.5t-10.5 186.5t10.5 186.5t56.5 101.5q74 74 182 74q67 0 114.5 -23t98.5 -74l-51 -51q-42 42 -76.5 61t-85.5 19q-74 0 -123 -51q-32 -33 -41 -79.5t-9 -163.5t9 -164t41 -80q48 -50 123 -50
q84 0 134 61q39 46 39 130v53h-173v67h249v-113zM384 -133q0 -42 -28.5 -69t-75.5 -27v45q23 0 38.5 14.5t15.5 36.5t-15.5 36.5t-38.5 14.5v45q47 0 75.5 -27t28.5 -69z" />
    <glyph glyph-name="gcommaaccent.ss01" horiz-adv-x="543" 
d="M453 -15q0 -93 -55 -152t-150 -59q-54 0 -90.5 15t-76.5 51l47 46q30 -27 54 -38t64 -11q68 0 101.5 42t33.5 109v77q-50 -64 -138 -64q-75 0 -119 44q-60 60 -60 205t60 205q43 43 120 43q89 0 138 -64v58h71v-507zM381 250q0 39 -4.5 68t-16.5 57.5t-37.5 43.5
t-63.5 15t-64 -15t-38 -43.5t-16.5 -57.5t-4.5 -68t4.5 -68t16.5 -57.5t38 -43.5t64 -15t63.5 15t37.5 43.5t16.5 57.5t4.5 68zM319 557q-46 0 -75 27.5t-29 68.5q0 42 28.5 69t75.5 27v-44q-23 0 -38.5 -15t-15.5 -37q0 -21 15.5 -36t38.5 -15v-45z" />
    <glyph glyph-name="Iogonek.ss01" horiz-adv-x="282" 
d="M179 0h-76v712h76v-712zM186 -229q-47 0 -75.5 27t-28.5 69t28.5 69t75.5 27v-45q-23 0 -38.5 -14.5t-15.5 -36.5t15.5 -36.5t38.5 -14.5v-45z" />
    <glyph glyph-name="iogonek.ss01" horiz-adv-x="253" 
d="M162 0h-72v492h72v-492zM176 677q0 -20 -15 -34.5t-35 -14.5t-34.5 14.5t-14.5 34.5t14.5 34.5t34.5 14.5t35 -14.5t15 -34.5zM170 -226q-47 0 -75.5 27t-28.5 69t28.5 69t75.5 27v-45q-23 0 -38.5 -14.5t-15.5 -36.5t15.5 -36.5t38.5 -14.5v-45z" />
    <glyph glyph-name="Idotaccent.ss01" horiz-adv-x="282" 
d="M179 0h-76v712h76v-712zM194 834q0 -19 -13 -32t-31 -13q-19 0 -32.5 13t-13.5 31q0 19 13 32.5t32 13.5t32 -13t13 -32z" />
    <glyph glyph-name="Kcommaaccent.ss01" horiz-adv-x="650" 
d="M636 0h-90l-217 379l-150 -180v-199h-76v712h76v-409l332 409h93l-224 -275zM398 -133q0 -42 -28.5 -69t-75.5 -27v45q23 0 38.5 14.5t15.5 36.5t-15.5 36.5t-38.5 14.5v45q47 0 75.5 -27t28.5 -69z" />
    <glyph glyph-name="kcommaaccent.ss01" horiz-adv-x="536" 
d="M503 0h-89l-156 252l-96 -110v-142h-72v712h72v-476l222 256h90l-167 -188zM329 -133q0 -42 -28.5 -69t-75.5 -27v45q23 0 38.5 14.5t15.5 36.5t-15.5 36.5t-38.5 14.5v45q47 0 75.5 -27t28.5 -69z" />
    <glyph glyph-name="Lcommaaccent.ss01" horiz-adv-x="573" 
d="M543 0h-440v712h76v-644h364v-68zM382 -133q0 -42 -28.5 -69t-75.5 -27v45q23 0 38.5 14.5t15.5 36.5t-15.5 36.5t-38.5 14.5v45q47 0 75.5 -27t28.5 -69z" />
    <glyph glyph-name="lcommaaccent.ss01" horiz-adv-x="297" 
d="M265 0h-52q-62 0 -93.5 36t-31.5 95v581h72v-578q0 -37 15 -54.5t51 -17.5h39v-62zM238 -133q0 -42 -28.5 -69t-75.5 -27v45q23 0 38.5 14.5t15.5 36.5t-15.5 36.5t-38.5 14.5v45q47 0 75.5 -27t28.5 -69z" />
    <glyph glyph-name="Lcaron.ss01" horiz-adv-x="573" 
d="M543 0h-440v712h76v-644h364v-68zM375 587l-68 -65v190h68v-125z" />
    <glyph glyph-name="lcaron.ss01" horiz-adv-x="297" 
d="M265 0h-52q-62 0 -93.5 36t-31.5 95v581h72v-578q0 -37 15 -54.5t51 -17.5h39v-62zM325 596l-68 -65v190h68v-125z" />
    <glyph glyph-name="Ncommaaccent.ss01" horiz-adv-x="732" 
d="M629 0h-72l-378 571v-571h-76v712h72l378 -569v569h76v-712zM411 -133q0 -42 -28.5 -69t-75.5 -27v45q23 0 38.5 14.5t15.5 36.5t-15.5 36.5t-38.5 14.5v45q47 0 75.5 -27t28.5 -69z" />
    <glyph glyph-name="ncommaaccent.ss01" horiz-adv-x="562" 
d="M477 0h-72v303q0 64 -32 97.5t-89 33.5t-89.5 -34t-32.5 -97v-303h-72v492h72v-54q52 60 138 60q80 0 126 -46q51 -50 51 -137v-315zM351 -133q0 -42 -28.5 -69t-75.5 -27v45q23 0 38.5 14.5t15.5 36.5t-15.5 36.5t-38.5 14.5v45q47 0 75.5 -27t28.5 -69z" />
    <glyph glyph-name="Rcommaaccent.ss01" horiz-adv-x="656" 
d="M601 0h-89l-162 316h-171v-316h-76v712h273q94 0 152.5 -53.5t58.5 -144.5q0 -76 -42 -126t-113 -65zM511 513q0 63 -39 97t-103 34h-190v-261h190q65 0 103.5 33.5t38.5 96.5zM376 -133q0 -42 -28.5 -69t-75.5 -27v45q23 0 38.5 14.5t15.5 36.5t-15.5 36.5t-38.5 14.5
v45q47 0 75.5 -27t28.5 -69z" />
    <glyph glyph-name="rcommaaccent.ss01" horiz-adv-x="421" 
d="M418 452l-53 -54q-20 20 -38.5 28t-46.5 8q-53 0 -85.5 -37.5t-32.5 -94.5v-302h-72v492h72v-60q20 31 57.5 48.5t80.5 17.5q72 0 118 -46zM194 -133q0 -42 -28.5 -69t-75.5 -27v45q23 0 38.5 14.5t15.5 36.5t-15.5 36.5t-38.5 14.5v45q47 0 75.5 -27t28.5 -69z" />
    <glyph glyph-name="Scedilla.ss01" horiz-adv-x="588" 
d="M532 196q0 -93 -67 -147.5t-179 -54.5q-80 0 -137 22t-107 72l52 52q43 -43 87.5 -60.5t106.5 -17.5q78 0 123 35t45 97q0 59 -34 89q-17 15 -35 21.5t-58 12.5l-83 13q-85 14 -131 54q-54 48 -54 133q0 91 61.5 146t166.5 55q68 0 117 -18t95 -60l-49 -49
q-67 61 -166 61q-70 0 -110 -36t-40 -96q0 -54 32 -82q33 -29 96 -39l78 -12q87 -13 130 -50q60 -51 60 -141zM352 -133q0 -42 -28.5 -69t-75.5 -27v45q23 0 38.5 14.5t15.5 36.5t-15.5 36.5t-38.5 14.5v45q47 0 75.5 -27t28.5 -69z" />
    <glyph glyph-name="scedilla.ss01" horiz-adv-x="496" 
d="M445 144q0 -70 -54.5 -110t-145.5 -40q-128 0 -202 71l48 48q54 -57 153 -57q62 0 96.5 22t34.5 65q0 65 -82 72l-81 7q-147 12 -147 132q0 66 50.5 105t130.5 39q112 0 177 -53l-47 -47q-51 39 -131 39q-53 0 -81.5 -21.5t-28.5 -59.5q0 -65 86 -72l79 -7
q70 -6 107.5 -37t37.5 -96zM305 -133q0 -42 -28.5 -69t-75.5 -27v45q23 0 38.5 14.5t15.5 36.5t-15.5 36.5t-38.5 14.5v45q47 0 75.5 -27t28.5 -69z" />
    <glyph glyph-name="Tcommaaccent.ss01" horiz-adv-x="548" 
d="M518 644h-206v-644h-76v644h-206v68h488v-68zM329 -133q0 -42 -28.5 -69t-75.5 -27v45q23 0 38.5 14.5t15.5 36.5t-15.5 36.5t-38.5 14.5v45q47 0 75.5 -27t28.5 -69z" />
    <glyph glyph-name="tcommaaccent.ss01" horiz-adv-x="332" 
d="M279 0h-51q-61 0 -93.5 37t-32.5 95v302h-62v55h62v154h72v-154h105v-55h-105v-300q0 -72 67 -72h38v-62zM241 -133q0 -42 -28.5 -69t-75.5 -27v45q23 0 38.5 14.5t15.5 36.5t-15.5 36.5t-38.5 14.5v45q47 0 75.5 -27t28.5 -69z" />
    <glyph glyph-name="tcaron.ss01" horiz-adv-x="332" 
d="M279 0h-51q-61 0 -93.5 37t-32.5 95v302h-62v55h62v154h72v-154h105v-55h-105v-300q0 -72 67 -72h38v-62zM330 596l-68 -65v190h68v-125z" />
    <glyph glyph-name="Uogonek.ss01" horiz-adv-x="683" 
d="M590 235q0 -106 -70.5 -173.5t-178.5 -67.5t-178 67.5t-70 173.5v477h76v-471q0 -81 47 -130t125 -49t125.5 49t47.5 130v471h76v-477zM531 -229q-47 0 -75.5 27t-28.5 69t28.5 69t75.5 27v-45q-23 0 -38.5 -14.5t-15.5 -36.5t15.5 -36.5t38.5 -14.5v-45z" />
    <glyph glyph-name="uogonek.ss01" horiz-adv-x="562" 
d="M472 0h-71v55q-53 -61 -139 -61q-81 0 -127 46q-50 49 -50 138v314h72v-303q0 -64 31.5 -97.5t88.5 -33.5t90 34t33 97v303h72v-492zM462 -229q-47 0 -75.5 27t-28.5 69t28.5 69t75.5 27v-45q-23 0 -38.5 -14.5t-15.5 -36.5t15.5 -36.5t38.5 -14.5v-45z" />
    <glyph glyph-name="Ydieresis.ss01" horiz-adv-x="514" 
d="M506 712l-210 -418v-294h-76v294l-212 418h82l168 -341l166 341h82zM408 832q0 -19 -13 -32t-32 -13t-32 13t-13 32t13 32.5t32 13.5t32 -13.5t13 -32.5zM196 832q0 -19 -13 -32t-32 -13t-32 13t-13 32t13 32.5t32 13.5t32 -13.5t13 -32.5z" />
    <glyph glyph-name="Zdotaccent.ss01" horiz-adv-x="556" 
d="M499 0h-442v72l356 572h-342v68h428v-64l-359 -580h359v-68zM332 834q0 -19 -13 -32t-31 -13q-19 0 -32.5 13t-13.5 31q0 19 13 32.5t32 13.5t32 -13t13 -32z" />
    <glyph glyph-name="zdotaccent.ss01" horiz-adv-x="459" 
d="M407 0h-357v62l274 366h-259v64h342v-61l-275 -367h275v-64zM271 656q0 -19 -13 -32.5t-32 -13.5t-32 13.5t-13 31.5q0 19 13 32t31 13q19 0 32.5 -13t13.5 -31z" />
    <glyph glyph-name="Scommaaccent.ss01" horiz-adv-x="588" 
d="M532 196q0 -93 -67 -147.5t-179 -54.5q-80 0 -137 22t-107 72l52 52q43 -43 87.5 -60.5t106.5 -17.5q78 0 123 35t45 97q0 59 -34 89q-17 15 -35 21.5t-58 12.5l-83 13q-85 14 -131 54q-54 48 -54 133q0 91 61.5 146t166.5 55q68 0 117 -18t95 -60l-49 -49
q-67 61 -166 61q-70 0 -110 -36t-40 -96q0 -54 32 -82q33 -29 96 -39l78 -12q87 -13 130 -50q60 -51 60 -141zM353 -133q0 -42 -28.5 -69t-75.5 -27v45q23 0 38.5 14.5t15.5 36.5t-15.5 36.5t-38.5 14.5v45q47 0 75.5 -27t28.5 -69z" />
    <glyph glyph-name="scommaaccent.ss01" horiz-adv-x="496" 
d="M445 144q0 -70 -54.5 -110t-145.5 -40q-128 0 -202 71l48 48q54 -57 153 -57q62 0 96.5 22t34.5 65q0 65 -82 72l-81 7q-147 12 -147 132q0 66 50.5 105t130.5 39q112 0 177 -53l-47 -47q-51 39 -131 39q-53 0 -81.5 -21.5t-28.5 -59.5q0 -65 86 -72l79 -7
q70 -6 107.5 -37t37.5 -96zM305 -133q0 -42 -28.5 -69t-75.5 -27v45q23 0 38.5 14.5t15.5 36.5t-15.5 36.5t-38.5 14.5v45q47 0 75.5 -27t28.5 -69z" />
    <glyph glyph-name="uni021A.ss01" horiz-adv-x="548" 
d="M518 644h-206v-644h-76v644h-206v68h488v-68zM329 -133q0 -42 -28.5 -69t-75.5 -27v45q23 0 38.5 14.5t15.5 36.5t-15.5 36.5t-38.5 14.5v45q47 0 75.5 -27t28.5 -69z" />
    <glyph glyph-name="uni021B.ss01" horiz-adv-x="332" 
d="M279 0h-51q-61 0 -93.5 37t-32.5 95v302h-62v55h62v154h72v-154h105v-55h-105v-300q0 -72 67 -72h38v-62zM241 -133q0 -42 -28.5 -69t-75.5 -27v45q23 0 38.5 14.5t15.5 36.5t-15.5 36.5t-38.5 14.5v45q47 0 75.5 -27t28.5 -69z" />
    <glyph glyph-name="dotaccent.ss01" horiz-adv-x="500" 
d="M314 649q0 -20 -15 -34.5t-35 -14.5t-34.5 14.5t-14.5 34.5t14.5 34.5t34.5 14.5t35 -14.5t15 -34.5z" />
    <glyph glyph-name="ogonek.ss01" horiz-adv-x="500" 
d="M428 -229q-47 0 -75.5 27t-28.5 69t28.5 69t75.5 27v-45q-23 0 -38.5 -14.5t-15.5 -36.5t15.5 -36.5t38.5 -14.5v-45z" />
    <glyph glyph-name="tonos.ss01" horiz-adv-x="500" 
d="M375 747l-108 -153h-66l88 153h86z" />
    <glyph glyph-name="dieresistonos.ss01" 
d="M375 747l-108 -153h-66l88 153h86zM189 645q0 -19 -13 -32t-32 -13t-32 13t-13 32t13 32.5t32 13.5t32 -13.5t13 -32.5zM431 645q0 -19 -13 -32t-32 -13t-32 13t-13 32t13 32.5t32 13.5t32 -13.5t13 -32.5z" />
    <glyph glyph-name="Alphatonos.ss01" horiz-adv-x="611" 
d="M599 0h-81l-57 161h-311l-57 -161h-81l262 712h64zM439 227l-132 376l-134 -376h266zM128 712l-108 -153h-66l88 153h86z" />
    <glyph glyph-name="anoteleia.ss01" horiz-adv-x="272" 
d="M193 267q0 -23 -17 -40t-40 -17t-40 17t-17 40t17 39.5t40 16.5t40 -16.5t17 -39.5z" />
    <glyph glyph-name="Epsilontonos.ss01" horiz-adv-x="600" 
d="M545 0h-442v712h442v-68h-366v-251h312v-68h-312v-257h366v-68zM38 712l-108 -153h-66l88 153h86z" />
    <glyph glyph-name="Etatonos.ss01" horiz-adv-x="696" 
d="M593 0h-76v325h-338v-325h-76v712h76v-319h338v319h76v-712zM38 712l-108 -153h-66l88 153h86z" />
    <glyph glyph-name="Iotatonos.ss01" horiz-adv-x="282" 
d="M179 0h-76v712h76v-712zM38 712l-108 -153h-66l88 153h86z" />
    <glyph glyph-name="Omicrontonos.ss01" horiz-adv-x="650" 
d="M574 356q0 -131 -10.5 -186.5t-56.5 -101.5q-74 -74 -182 -74t-182 74q-46 46 -56.5 101.5t-10.5 186.5t10.5 186.5t56.5 101.5q74 74 182 74t182 -74q46 -46 56.5 -101.5t10.5 -186.5zM498 356q0 117 -9 163.5t-41 79.5q-49 51 -123 51t-123 -51q-32 -33 -41 -79.5
t-9 -163.5t9 -163.5t41 -79.5q49 -51 123 -51t123 51q32 33 41 79.5t9 163.5zM68 712l-108 -153h-66l88 153h86z" />
    <glyph glyph-name="Upsilontonos.ss01" horiz-adv-x="514" 
d="M506 712l-210 -418v-294h-76v294l-212 418h82l168 -341l166 341h82zM-2 712l-108 -153h-66l88 153h86z" />
    <glyph glyph-name="Omegatonos.ss01" horiz-adv-x="650" 
d="M574 0h-195v64q64 30 92 76q16 26 21 73.5t5 140.5q0 118 -8.5 165.5t-40.5 79.5q-51 51 -123 51t-123 -51q-32 -33 -41 -80.5t-9 -164.5q0 -171 27 -214q28 -46 92 -76v-64h-195v67h82q-36 30 -55 67q-13 25 -19 63t-7 65t-1 79v15q0 131 10.5 186.5t56.5 101.5
q74 74 182 74t182 -74q46 -46 56.5 -101.5t10.5 -186.5q0 -133 -12 -180q-6 -24 -15 -42q-18 -36 -56 -67h83v-67zM68 712l-108 -153h-66l88 153h86z" />
    <glyph glyph-name="iotadieresistonos.ss01" horiz-adv-x="297" 
d="M265 0h-52q-62 0 -93.5 35.5t-31.5 95.5v361h72v-358q0 -37 15 -54.5t51 -17.5h39v-62zM245 747l-108 -153h-66l88 153h86zM59 645q0 -19 -13 -32t-32 -13t-32 13t-13 32t13 32.5t32 13.5t32 -13.5t13 -32.5zM301 645q0 -19 -13 -32t-32 -13t-32 13t-13 32t13 32.5
t32 13.5t32 -13.5t13 -32.5z" />
    <glyph glyph-name="Xi.ss01" horiz-adv-x="553" 
d="M498 644h-443v68h443v-68zM498 0h-443v68h443v-68zM444 325h-335v68h335v-68z" />
    <glyph glyph-name="Iotadieresis.ss01" horiz-adv-x="282" 
d="M179 0h-76v712h76v-712zM292 832q0 -19 -13 -32t-32 -13t-32 13t-13 32t13 32.5t32 13.5t32 -13.5t13 -32.5zM80 832q0 -19 -13 -32t-32 -13t-32 13t-13 32t13 32.5t32 13.5t32 -13.5t13 -32.5z" />
    <glyph glyph-name="Upsilondieresis.ss01" horiz-adv-x="514" 
d="M506 712l-210 -418v-294h-76v294l-212 418h82l168 -341l166 341h82zM408 832q0 -19 -13 -32t-32 -13t-32 13t-13 32t13 32.5t32 13.5t32 -13.5t13 -32.5zM196 832q0 -19 -13 -32t-32 -13t-32 13t-13 32t13 32.5t32 13.5t32 -13.5t13 -32.5z" />
    <glyph glyph-name="alphatonos.ss01" horiz-adv-x="545" 
d="M455 0h-71v59q-51 -65 -140 -65q-77 0 -120 43q-60 60 -60 209t60 209q43 43 120 43q45 0 77.5 -13.5t61.5 -49.5v57h72v-492zM383 246q0 41 -4.5 71t-16.5 58.5t-38 43.5t-64 15t-64 -15t-38.5 -43.5t-17 -58.5t-4.5 -71t4.5 -71t17 -58.5t38.5 -43.5t64 -15t64 15
t38 43.5t16.5 58.5t4.5 71zM385 747l-108 -153h-66l88 153h86z" />
    <glyph glyph-name="epsilontonos.ss01" horiz-adv-x="493" 
d="M450 73q-84 -79 -210 -79q-75 0 -126.5 37t-51.5 105q0 83 80 116q-71 28 -71 107q0 64 52 101.5t123 37.5q64 0 107 -16t85 -55l-45 -48q-64 58 -144 58q-40 0 -72 -22.5t-32 -57.5q0 -36 23.5 -57t67.5 -21h87v-57h-85q-54 0 -77.5 -23.5t-23.5 -59.5t30.5 -59.5
t75.5 -23.5q91 0 157 61zM385 747l-108 -153h-66l88 153h86z" />
    <glyph glyph-name="etatonos.ss01" horiz-adv-x="562" 
d="M477 0h-72v303q0 64 -32 97.5t-89 33.5t-89.5 -34t-32.5 -97v-303h-72v492h72v-54q52 60 138 60q80 0 126 -46q51 -50 51 -137v-315zM405 747l-108 -153h-66l88 153h86z" />
    <glyph glyph-name="iotatonos.ss01" horiz-adv-x="297" 
d="M265 0h-52q-62 0 -93.5 35.5t-31.5 95.5v361h72v-358q0 -37 15 -54.5t51 -17.5h39v-62zM262 747l-108 -153h-66l88 153h86z" />
    <glyph glyph-name="upsilondieresistonos.ss01" horiz-adv-x="521" 
d="M453 245q0 -66 -10.5 -112.5t-46.5 -82.5q-56 -56 -136 -56q-79 0 -135 56q-36 36 -46.5 82.5t-10.5 112.5v247h71v-247v-10q0 -33 1 -51.5t9.5 -45t24.5 -42.5q38 -38 86 -38t86 38q18 18 26 48t8.5 45t0.5 56v247h72v-247zM375 747l-108 -153h-66l88 153h86zM189 645
q0 -19 -13 -32t-32 -13t-32 13t-13 32t13 32.5t32 13.5t32 -13.5t13 -32.5zM431 645q0 -19 -13 -32t-32 -13t-32 13t-13 32t13 32.5t32 13.5t32 -13.5t13 -32.5z" />
    <glyph glyph-name="pi.ss01" horiz-adv-x="591" 
d="M490 0h-69v427h-250v-427h-70v492h389v-492z" />
    <glyph glyph-name="phi.ss01" horiz-adv-x="662" 
d="M598 246q0 -52 -12 -95.5t-38 -80t-72 -56.5t-109 -20v-214h-72v214q-63 0 -109 20t-72 56.5t-38 80t-12 95.5t12 95.5t38 80t72 56.5t109 20v214h72v-214q63 0 109 -20t72 -56.5t38 -80t12 -95.5zM526 246q0 188 -159 188v-376q159 0 159 188zM295 58v376
q-46 0 -78.5 -16t-49 -44.5t-24 -59.5t-7.5 -68t7.5 -68t24 -59.5t49 -44.5t78.5 -16z" />
    <glyph glyph-name="psi.ss01" horiz-adv-x="641" 
d="M573 246q0 -124 -50 -186t-167 -65v-215h-73v215q-117 3 -166 64.5t-49 186.5v246h72v-246q0 -96 29 -139t114 -46v651h73v-651q86 3 115 46t29 139v246h73v-246z" />
    <glyph glyph-name="iotadieresis.ss01" horiz-adv-x="297" 
d="M265 0h-52q-62 0 -93.5 35.5t-31.5 95.5v361h72v-358q0 -37 15 -54.5t51 -17.5h39v-62zM278 645q0 -19 -13 -32t-32 -13t-32 13t-13 32t13 32.5t32 13.5t32 -13.5t13 -32.5zM66 645q0 -19 -13 -32t-32 -13t-32 13t-13 32t13 32.5t32 13.5t32 -13.5t13 -32.5z" />
    <glyph glyph-name="upsilondieresis.ss01" horiz-adv-x="521" 
d="M453 245q0 -66 -10.5 -112.5t-46.5 -82.5q-56 -56 -136 -56q-79 0 -135 56q-36 36 -46.5 82.5t-10.5 112.5v247h71v-247v-10q0 -33 1 -51.5t9.5 -45t24.5 -42.5q38 -38 86 -38t86 38q18 18 26 48t8.5 45t0.5 56v247h72v-247zM409 645q0 -19 -13 -32t-32 -13t-32 13
t-13 32t13 32.5t32 13.5t32 -13.5t13 -32.5zM197 645q0 -19 -13 -32t-32 -13t-32 13t-13 32t13 32.5t32 13.5t32 -13.5t13 -32.5z" />
    <glyph glyph-name="omicrontonos.ss01" 
d="M466 246q0 -135 -60 -196q-56 -56 -141 -56t-141 56q-60 61 -60 196t60 196q56 56 141 56t141 -56q60 -61 60 -196zM394 246q0 113 -39 152q-36 36 -90 36q-53 0 -89 -36q-40 -40 -40 -152t40 -152q36 -36 89 -36q54 0 90 36q39 39 39 152zM405 747l-108 -153h-66l88 153
h86z" />
    <glyph glyph-name="upsilontonos.ss01" horiz-adv-x="521" 
d="M453 245q0 -66 -10.5 -112.5t-46.5 -82.5q-56 -56 -136 -56q-79 0 -135 56q-36 36 -46.5 82.5t-10.5 112.5v247h71v-247v-10q0 -33 1 -51.5t9.5 -45t24.5 -42.5q38 -38 86 -38t86 38q18 18 26 48t8.5 45t0.5 56v247h72v-247zM395 747l-108 -153h-66l88 153h86z" />
    <glyph glyph-name="omegatonos.ss01" horiz-adv-x="723" 
d="M659 242q0 -114 -35 -175q-42 -73 -136 -73q-46 0 -78.5 26t-48.5 67q-16 -41 -48.5 -67t-77.5 -26q-94 0 -136 73q-35 61 -35 175q0 53 13 106t37 81q55 65 128 69v-66q-23 -2 -45 -18t-34 -35q-16 -26 -22 -53.5t-6 -83.5q0 -96 24 -139q26 -45 76 -45q61 0 82 79
q8 34 8 98v126h73v-126q0 -68 7 -98q18 -79 83 -79q50 0 76 45q23 41 23 139q0 57 -6 84t-21 53q-11 19 -34 35t-46 18v66q73 -4 128 -69q24 -28 37.5 -81.5t13.5 -105.5zM495 747l-108 -153h-66l88 153h86z" />
    <glyph glyph-name="beta1.ss01" horiz-adv-x="553" 
d="M505 202q0 -84 -54.5 -146t-132.5 -62q-53 0 -89.5 13.5t-67.5 51.5v-59h-71v533q0 78 53.5 128.5t137.5 50.5q85 0 136 -44t51 -126q0 -54 -23.5 -98t-73.5 -58q134 -22 134 -184zM435 205q0 45 -13 75t-37.5 44.5t-50.5 19.5t-62 5h-59v57h61q125 0 125 126
q0 62 -32 91.5t-84 29.5q-60 0 -90.5 -38t-30.5 -101v-309q0 -62 33.5 -105.5t100.5 -43.5q69 0 104 44.5t35 104.5z" />
    <glyph glyph-name="afii10023.ss01" horiz-adv-x="600" 
d="M545 0h-442v712h442v-68h-366v-251h312v-68h-312v-257h366v-68zM464 832q0 -19 -13 -32t-32 -13t-32 13t-13 32t13 32.5t32 13.5t32 -13.5t13 -32.5zM252 832q0 -19 -13 -32t-32 -13t-32 13t-13 32t13 32.5t32 13.5t32 -13.5t13 -32.5z" />
    <glyph glyph-name="afii10053.ss01" horiz-adv-x="587" 
d="M525 81q-51 -46 -94 -66.5t-104 -20.5q-110 0 -184 74q-24 24 -38.5 53.5t-20.5 69.5t-7 67.5t-1 80.5v39q0 109 11.5 165.5t55.5 100.5q74 74 183 74q62 0 105 -20.5t94 -66.5l-51 -51q-37 36 -69.5 53t-77.5 17q-75 0 -125 -50q-30 -31 -39.5 -78t-10.5 -130h274v-67
h-274q0 -96 10.5 -139.5t39.5 -73.5q48 -50 125 -50q45 0 77.5 17t69.5 53z" />
    <glyph glyph-name="afii10056.ss01" horiz-adv-x="282" 
d="M179 0h-76v712h76v-712zM292 832q0 -19 -13 -32t-32 -13t-32 13t-13 32t13 32.5t32 13.5t32 -13.5t13 -32.5zM80 832q0 -19 -13 -32t-32 -13t-32 13t-13 32t13 32.5t32 13.5t32 -13.5t13 -32.5z" />
    <glyph glyph-name="afii10058.ss01" horiz-adv-x="1025" 
d="M909 209q0 67 -40 104.5t-111 37.5h-184v-283h184q71 0 111 37t40 104zM184 712h390v-293h192q99 0 159 -57.5t60 -152.5q0 -94 -60 -151.5t-159 -57.5h-268v644h-241q0 -139 -5.5 -241.5t-18 -174t-29 -116t-43 -69.5t-54.5 -34t-69 -9h-31v68h16q34 0 55.5 10
t43.5 46.5t34 104.5t20 188.5t8 294.5z" />
    <glyph glyph-name="afii10061.ss01" horiz-adv-x="673" 
d="M514 583l-54 -133q-23 -59 -77 -83q34 -5 54 -28.5t38 -63.5l62 -140q2 -5 6.5 -15t6 -13t5 -10.5t5.5 -9.5l6.5 -6.5t8.5 -6t10 -3.5t13 -2.5t16 -0.5h29v-68h-39q-55 0 -84.5 23.5t-49.5 75.5l-71 161q-28 65 -101 65h-119v-325h-76v712h76v-319h109q36 0 66 27t46 65
l54 133q21 51 49.5 72.5t79.5 21.5h26v-68h-18q-38 0 -50 -11t-27 -50zM452 934l-108 -153h-66l88 153h86z" />
    <glyph glyph-name="afii10021.ss01" horiz-adv-x="694" 
d="M26 68h65q51 88 71.5 218.5t20.5 425.5h385v-644h85v-240h-75v172h-477v-172h-75v240zM174 68h318v576h-237q0 -251 -18.5 -374t-62.5 -202z" />
    <glyph glyph-name="afii10024.ss01" horiz-adv-x="984" 
d="M530 0h-76v325h-79q-73 0 -101 -65l-71 -161q-20 -52 -49.5 -75.5t-84.5 -23.5h-39v68h29q10 0 18 1.5t13.5 2t11 5.5t8 6.5t7 9.5t6 10.5t6.5 15t7 16.5l62 140q18 40 38 63.5t54 28.5q-54 24 -77 83l-54 133q-9 23 -12.5 30.5t-12.5 17t-20.5 11.5t-31.5 2h-18v68h26
q51 0 79.5 -21.5t49.5 -72.5l54 -133q16 -38 45.5 -65t66.5 -27h69v319h76v-319h69q37 0 66.5 27t45.5 65l54 133q21 51 49.5 72.5t79.5 21.5h26v-68h-18q-38 0 -49.5 -11t-27.5 -50l-54 -133q-23 -59 -77 -83q34 -5 54 -28.5t38 -63.5l62 -140q2 -5 6.5 -15t6 -13t5 -10.5
t5.5 -9.5l6.5 -6.5t8.5 -6t10 -3.5t13 -2.5t16 -0.5h29v-68h-39q-55 0 -84.5 23.5t-49.5 75.5l-71 161q-28 65 -101 65h-79v-325z" />
    <glyph glyph-name="afii10025.ss01" horiz-adv-x="588" 
d="M512 196q0 -91 -67 -146.5t-169 -55.5q-77 0 -130.5 20.5t-106.5 73.5l52 52q45 -43 86 -60.5t102 -17.5q67 0 111.5 37t44.5 99q0 66 -38 99.5t-107 33.5h-81v66h84q62 0 96.5 33.5t34.5 95.5q0 59 -39.5 92t-104.5 33q-99 0 -169 -62l-47 49q94 80 217 80
q95 0 157 -51.5t62 -137.5q0 -115 -103 -162q115 -41 115 -171z" />
    <glyph glyph-name="afii10028.ss01" horiz-adv-x="673" 
d="M514 583l-54 -133q-23 -59 -77 -83q34 -5 54 -28.5t38 -63.5l62 -140q2 -5 6.5 -15t6 -13t5 -10.5t5.5 -9.5l6.5 -6.5t8.5 -6t10 -3.5t13 -2.5t16 -0.5h29v-68h-39q-55 0 -84.5 23.5t-49.5 75.5l-71 161q-28 65 -101 65h-119v-325h-76v712h76v-319h109q36 0 66 27t46 65
l54 133q21 51 49.5 72.5t79.5 21.5h26v-68h-18q-38 0 -50 -11t-27 -50z" />
    <glyph glyph-name="afii10029.ss01" horiz-adv-x="677" 
d="M574 0h-76v644h-241q0 -139 -5.5 -241.5t-18 -174t-29 -116t-43 -69.5t-54.5 -34t-69 -9h-31v68h16q34 0 55.5 10t43.5 46.5t34 104.5t20 188.5t8 294.5h390v-712z" />
    <glyph glyph-name="afii10035.ss01" horiz-adv-x="587" 
d="M525 81q-51 -46 -94 -66.5t-104 -20.5q-110 0 -184 74q-24 24 -38.5 53.5t-20.5 69.5t-7 67.5t-1 80.5v39q0 109 11.5 165.5t55.5 100.5q74 74 183 74q62 0 105 -20.5t94 -66.5l-51 -51q-37 36 -69.5 53t-77.5 17q-75 0 -125 -50q-33 -33 -41.5 -86.5t-8.5 -157.5v-27
q0 -99 10 -143t40 -74q48 -50 125 -50q45 0 77.5 17t69.5 53z" />
    <glyph glyph-name="afii10047.ss01" horiz-adv-x="587" 
d="M512 382v-21q0 -62 -1 -92.5t-7 -73.5t-20.5 -72.5t-39.5 -54.5q-74 -74 -184 -74q-53 0 -98 18q-27 11 -47 25t-53 44l51 51q44 -43 79 -57q29 -13 68 -13q77 0 125 50q29 30 39.5 73.5t10.5 139.5h-258v68h258q0 6 -0.5 30.5t-1 33t-2 30t-5 33t-8.5 27.5t-13.5 29
t-19.5 24q-50 50 -125 50q-37 0 -68 -13q-36 -16 -79 -57l-51 51q33 30 53 44t47 25q46 18 99 18q109 0 183 -74q40 -40 54 -95.5t14 -166.5z" />
    <glyph glyph-name="afii10049.ss01" horiz-adv-x="658" 
d="M479 316h-115q-73 0 -101 -65l-66 -152q-23 -53 -51 -76t-82 -23h-34v68h24q35 0 47.5 11.5t27.5 45.5q2 7 4 10l50 117q24 55 56 75q-72 7 -120 53t-48 134q0 91 58.5 144.5t152.5 53.5h273v-712h-76v316zM147 513q0 -64 39 -98t103 -34h190v263h-190q-64 0 -103 -34
t-39 -97z" />
    <glyph glyph-name="afii10066.ss01" horiz-adv-x="540" 
d="M274 -6q-68 0 -117 35.5t-68 97.5q-17 54 -17 216q0 102 13.5 165t60.5 106q11 10 24 18.5t22.5 14t27 10.5t24 7t28.5 5t26 3.5t29.5 3t26.5 2.5q31 3 32 34h62q0 -47 -20 -70.5t-63 -28.5q-8 -1 -32 -3t-34 -3.5t-30 -5t-32 -8t-26.5 -12.5t-25.5 -18q-10 -9 -18.5 -20
t-13.5 -20t-9.5 -21.5t-6.5 -19.5t-3.5 -20.5l-2 -18t-1 -18t-0.5 -15.5q19 35 63.5 56.5t87.5 21.5q94 0 144.5 -64t50.5 -180q0 -134 -61 -196q-52 -54 -141 -54zM274 58q58 0 91 38q39 42 39 144q0 105 -39 147q-34 37 -91 37q-58 0 -92 -37q-36 -39 -36 -145
q0 -103 38 -144q35 -40 90 -40z" />
    <glyph glyph-name="afii10069.ss01" horiz-adv-x="556" 
d="M18 62h63q29 65 43 161t14 269h312v-430h73v-209h-70v147h-366v-147h-69v209zM157 62h221v368h-172q0 -245 -49 -368z" />
    <glyph glyph-name="afii10072.ss01" horiz-adv-x="743" 
d="M407 0h-71v224h-37q-71 0 -94 -61l-27 -71q-18 -49 -44.5 -70.5t-76.5 -21.5h-31v64h22q19 0 29.5 2.5t18.5 12.5t11.5 17t11.5 29l23 62q23 62 74 74q-42 14 -59 60l-19 52q-13 37 -25 47.5t-47 10.5h-12v61h21q48 0 75 -19.5t44 -66.5l24 -65q22 -57 81 -57h37v208h71
v-208h37q59 0 81 57l24 65q17 47 44 66.5t75 19.5h21v-61h-12q-35 0 -47 -10.5t-25 -47.5l-19 -52q-17 -46 -59 -60q51 -12 74 -74l23 -62q8 -22 11.5 -29t11.5 -17t18.5 -12.5t29.5 -2.5h22v-64h-31q-50 0 -76.5 21.5t-44.5 70.5l-27 71q-23 61 -94 61h-37v-224z" />
    <glyph glyph-name="afii10076.ss01" horiz-adv-x="520" 
d="M221 223h-59v-223h-71v492h71v-207h59q59 0 81 56l24 65q17 47 44 66.5t75 19.5h21v-61h-12q-35 0 -47 -10.5t-25 -47.5l-19 -52q-17 -46 -59 -60q51 -12 74 -74l23 -62q8 -22 11.5 -29t11.5 -17t18.5 -12.5t29.5 -2.5h22v-64h-31q-50 0 -76.5 21.5t-44.5 70.5l-27 71
q-23 60 -94 60z" />
    <glyph glyph-name="afii10077.ss01" horiz-adv-x="546" 
d="M456 0h-72v430h-171q0 -116 -7.5 -195t-19.5 -125.5t-34.5 -71t-45.5 -31.5t-59 -7h-28v62h15q21 0 33 3.5t26.5 16t22.5 40.5t15.5 74.5t10.5 120t3 175.5h311v-492z" />
    <glyph glyph-name="afii10086.ss01" horiz-adv-x="838" 
d="M774 246q0 -149 -60 -209q-43 -43 -120 -43q-89 0 -139 64v-278h-72v278q-50 -64 -139 -64q-77 0 -120 43q-60 60 -60 209t60 209q43 43 120 43q90 0 139 -63v277h72v-277q49 63 139 63q77 0 120 -43q60 -60 60 -209zM702 246q0 41 -4.5 71t-16.5 58.5t-38 43.5t-64 15
t-64 -15t-38.5 -43.5t-17 -58.5t-4.5 -71t4.5 -71t17 -58.5t38.5 -43.5t64 -15t64 15t38 43.5t16.5 58.5t4.5 71zM384 246q0 41 -4.5 71t-16.5 58.5t-38 43.5t-64 15t-64 -15t-38.5 -43.5t-17 -58.5t-4.5 -71t4.5 -71t17 -58.5t38.5 -43.5t64 -15t64 15t38 43.5t16.5 58.5
t4.5 71z" />
    <glyph glyph-name="afii10097.ss01" horiz-adv-x="532" 
d="M370 207h-70l2 -1q-37 0 -57.5 -12.5t-36.5 -49.5l-22 -52q-21 -50 -46 -71t-75 -21h-31v64h22q8 0 14 0.5t10.5 1t9 3t7.5 3.5t6.5 5.5t5 6t4.5 8.5t4 9.5t5 11.5t5 12l18 43q15 37 41 50q-56 5 -87.5 41t-31.5 91q0 64 42.5 103t112.5 39h219v-492h-71v207zM370 265
v167h-137q-94 0 -94 -85q0 -82 94 -82h137z" />
    <glyph glyph-name="afii10071.ss01" 
d="M467 227h-332q3 -59 15 -89q34 -81 134 -81q32 0 63 12q28 12 62 44l49 -43q-45 -44 -83 -59q-42 -17 -95 -17q-107 0 -162 65t-55 190q0 116 54 182.5t148 66.5t148 -64t54 -174v-33zM395 281q-2 45 -9 65q-13 43 -45 67t-76 24q-39 0 -69.5 -19.5t-45.5 -54.5
q-13 -28 -15 -82h260zM418 645q0 -19 -13 -32t-32 -13t-32 13t-13 32t13 32.5t32 13.5t32 -13.5t13 -32.5zM206 645q0 -19 -13 -32t-32 -13t-32 13t-13 32t13 32.5t32 13.5t32 -13.5t13 -32.5z" />
    <glyph glyph-name="afii10103.ss01" horiz-adv-x="253" 
d="M162 0h-71v488h71v-488zM175 678q0 -21 -14 -35.5t-34 -14.5t-34.5 14.5t-14.5 34.5t14 34.5t34 14.5t34.5 -14t14.5 -34z" />
    <glyph glyph-name="afii10104.ss01" horiz-adv-x="253" 
d="M162 0h-72v492h72v-492zM278 645q0 -19 -13 -32t-32 -13t-32 13t-13 32t13 32.5t32 13.5t32 -13.5t13 -32.5zM66 645q0 -19 -13 -32t-32 -13t-32 13t-13 32t13 32.5t32 13.5t32 -13.5t13 -32.5z" />
    <glyph glyph-name="afii10105.ss01" horiz-adv-x="253" 
d="M162 -90q0 -59 -32 -95t-93 -36h-52v62h39q37 0 52 17.5t15 54.5v575h71v-578zM175 678q0 -21 -14 -35.5t-34 -14.5t-34.5 14.5t-14.5 34.5t14 34.5t34 14.5t34.5 -14t14.5 -34z" />
    <glyph glyph-name="afii10106.ss01" horiz-adv-x="801" 
d="M689 148q0 41 -23.5 63.5t-68.5 22.5h-140v-172h140q45 0 68.5 22.5t23.5 63.5zM145 492h312v-195h148q71 0 113.5 -41t42.5 -108t-43 -107.5t-113 -40.5h-219v430h-173q0 -116 -7.5 -195t-19.5 -125.5t-34.5 -71t-45.5 -31.5t-59 -7h-28v62h15q21 0 33 3.5t26.5 16
t22.5 40.5t15.5 74.5t10.5 120t3 175.5z" />
    <glyph glyph-name="afii10109.ss01" horiz-adv-x="520" 
d="M221 223h-59v-223h-71v492h71v-207h59q59 0 81 56l24 65q17 47 44 66.5t75 19.5h21v-61h-12q-35 0 -47 -10.5t-25 -47.5l-19 -52q-17 -46 -59 -60q51 -12 74 -74l23 -62q8 -22 11.5 -29t11.5 -17t18.5 -12.5t29.5 -2.5h22v-64h-31q-50 0 -76.5 21.5t-44.5 70.5l-27 71
q-23 60 -94 60zM387 747l-108 -153h-66l88 153h86z" />
    <glyph glyph-name="ellipsis.ss01" horiz-adv-x="757" 
d="M677 54q0 -23 -17 -40t-40 -17t-40 17t-17 40t17 40t40 17t40 -17t17 -40zM193 54q0 -23 -17 -40t-40 -17t-40 17t-17 40t17 40t40 17t40 -17t17 -40zM435 54q0 -23 -17 -40t-40 -17t-40 17t-17 40t17 40t40 17t40 -17t17 -40z" />
    <glyph glyph-name="Euro.ss01" horiz-adv-x="624" 
d="M562 81q-90 -87 -201 -87q-107 0 -181 74q-36 36 -49.5 79t-16.5 113h-67v50h66v98h-66v49h67q3 67 17 109.5t49 77.5q74 74 181 74q111 0 201 -87l-51 -51q-37 36 -70 53t-80 17q-75 0 -123 -50q-24 -25 -34 -56t-13 -87h219v-49h-221v-98h221v-50h-219q2 -59 12 -90.5
t35 -57.5q48 -50 123 -50q47 0 80 17t70 53z" />
    <glyph glyph-name="uni2219.ss01" horiz-adv-x="272" 
d="M193 267q0 -23 -17 -40t-40 -17t-40 17t-17 40t17 39.5t40 16.5t40 -16.5t17 -39.5z" />
    <glyph glyph-name="uni2224.ss01" horiz-adv-x="272" 
d="M193 267q0 -23 -17 -40t-40 -17t-40 17t-17 40t17 39.5t40 16.5t40 -16.5t17 -39.5z" />
    <glyph glyph-name="logicaland.ss01" horiz-adv-x="272" 
d="M193 267q0 -23 -17 -40t-40 -17t-40 17t-17 40t17 39.5t40 16.5t40 -16.5t17 -39.5z" />
    <glyph glyph-name="dotmath.ss01" horiz-adv-x="272" 
d="M193 267q0 -23 -17 -40t-40 -17t-40 17t-17 40t17 39.5t40 16.5t40 -16.5t17 -39.5z" />
    <glyph glyph-name="fi.ss01" horiz-adv-x="560" 
d="M281 434h-106v-434h-72v434h-63v55h63v93q0 58 32.5 95t93.5 37h52v-62h-39q-67 0 -67 -72v-91h106v-55zM470 0h-72v489h72v-489zM483 677q0 -20 -14.5 -34.5t-34.5 -14.5t-35 14.5t-15 34.5t15 34.5t35 14.5t34.5 -14.5t14.5 -34.5z" />
    <glyph glyph-name="diedotlc.ss01" 
d="M204 645q0 -19 -13 -32t-32 -13t-32 13t-13 32t13 32.5t32 13.5t32 -13.5t13 -32.5z" />
    <glyph glyph-name="diedotuc.ss01" horiz-adv-x="650" 
d="M264 832q0 -19 -13 -32t-32 -13t-32 13t-13 32t13 32.5t32 13.5t32 -13.5t13 -32.5z" />
    <glyph glyph-name="dieresislc.ss01" 
d="M416 645q0 -19 -13 -32t-32 -13t-32 13t-13 32t13 32.5t32 13.5t32 -13.5t13 -32.5zM204 645q0 -19 -13 -32t-32 -13t-32 13t-13 32t13 32.5t32 13.5t32 -13.5t13 -32.5z" />
    <glyph glyph-name="dieresisuc.ss01" horiz-adv-x="650" 
d="M476 832q0 -19 -13 -32t-32 -13t-32 13t-13 32t13 32.5t32 13.5t32 -13.5t13 -32.5zM264 832q0 -19 -13 -32t-32 -13t-32 13t-13 32t13 32.5t32 13.5t32 -13.5t13 -32.5z" />
    <glyph glyph-name="dotaccentlc.ss01" horiz-adv-x="500" 
d="M309 656q0 -19 -13 -32.5t-32 -13.5t-32 13.5t-13 31.5q0 19 13 32t31 13q19 0 32.5 -13t13.5 -31z" />
    <glyph glyph-name="dotaccentuc.ss01" horiz-adv-x="500" 
d="M304 834q0 -19 -13 -32t-31 -13q-19 0 -32.5 13t-13.5 31q0 19 13 32.5t32 13.5t32 -13t13 -32z" />
    <glyph glyph-name="zero.tosf" horiz-adv-x="522" 
d="M456 190q0 -87 -55.5 -141.5t-139.5 -54.5t-139.5 54.5t-55.5 141.5v217q0 87 55.5 141.5t139.5 54.5t139.5 -54.5t55.5 -141.5v-217zM384 194v209q0 60 -32.5 98t-90.5 38t-90.5 -38t-32.5 -98v-209q0 -60 32.5 -98t90.5 -38t90.5 38t32.5 98z" />
    <glyph glyph-name="one.tosf" horiz-adv-x="522" 
d="M330 0h-72v517l-133 -117v82l133 115h72v-597z" />
    <glyph glyph-name="two.tosf" horiz-adv-x="522" 
d="M468 0h-409v64l251 242q68 66 68 134q0 51 -34.5 85t-87.5 34q-52 0 -87.5 -33.5t-35.5 -87.5h-72q0 80 55.5 132.5t139.5 52.5q86 0 140 -52t54 -130q0 -87 -92 -177l-204 -200h314v-64z" />
    <glyph glyph-name="three.tosf" horiz-adv-x="522" 
d="M460 78q0 -95 -59 -148t-150 -53q-89 0 -147 47.5t-62 140.5h72q4 -63 42.5 -93t94.5 -30q60 0 98.5 36.5t38.5 100.5q0 138 -140 138h-14v63h14q64 0 95.5 33.5t31.5 95.5t-35 96t-89 34q-56 0 -89.5 -31.5t-38.5 -86.5h-72q6 84 61.5 133t138.5 49q87 0 141.5 -53
t54.5 -140q0 -114 -96 -158q109 -41 109 -174z" />
    <glyph glyph-name="four.tosf" horiz-adv-x="522" 
d="M495 30h-91v-153h-71v153h-303v66l264 533h77l-265 -533h227v205h71v-205h91v-66z" />
    <glyph glyph-name="five.tosf" horiz-adv-x="522" 
d="M457 120q0 -64 -11 -109t-46 -80q-53 -53 -142 -53q-92 0 -143 51q-44 45 -50 124h72q14 -111 121 -111q55 0 88 33q39 39 39 145q0 37 -4.5 64.5t-16.5 54t-37 40.5t-62 14q-46 0 -76.5 -19t-41.5 -51h-65v374h360v-64h-295v-226q44 49 128 49q78 0 123 -45
q59 -59 59 -191z" />
    <glyph glyph-name="six.tosf" horiz-adv-x="522" 
d="M475 220q0 -99 -58 -162.5t-154 -63.5q-98 0 -155.5 60t-57.5 160q0 88 52 179l190 335h76l-180 -309q37 19 87 19q90 0 145 -61t55 -157zM403 216q0 69 -37.5 115.5t-103.5 46.5q-64 0 -102 -44t-38 -118q0 -73 38 -117t102 -44t102.5 44t38.5 117z" />
    <glyph glyph-name="seven.tosf" horiz-adv-x="522" 
d="M482 533l-291 -656h-76l290 656h-274v-112h-71v176h422v-64z" />
    <glyph glyph-name="eight.tosf" horiz-adv-x="522" 
d="M471 196q0 -89 -60 -145.5t-150 -56.5t-150 56.5t-60 145.5q0 112 107 173q-94 54 -94 158q0 83 56 137t141 54t141 -54t56 -137q0 -104 -94 -158q107 -61 107 -173zM399 197q0 59 -39.5 99t-98.5 40t-98.5 -40t-39.5 -99t39.5 -99t98.5 -40t98.5 40t39.5 99zM386 526
q0 56 -35 92t-90 36t-90 -36t-35 -92t35 -91.5t90 -35.5t90 35.5t35 91.5z" />
    <glyph glyph-name="nine.tosf" horiz-adv-x="522" 
d="M472 383q0 -88 -52 -179l-190 -335h-76l180 309q-37 -19 -87 -19q-90 0 -145 61t-55 157q0 99 58 162.5t154 63.5q98 0 155.5 -60t57.5 -160zM400 381q0 73 -38 117t-102 44t-102.5 -44t-38.5 -117q0 -69 37.5 -115.5t103.5 -46.5q64 0 102 44t38 118z" />
    <glyph glyph-name="grave.uc" horiz-adv-x="650" 
d="M374 781h-66l-108 153h86z" />
    <glyph glyph-name="dieresis.uc" horiz-adv-x="650" 
d="M467 789h-72v89h72v-89zM255 789h-72v89h72v-89z" />
    <glyph glyph-name="macron.uc" horiz-adv-x="500" 
d="M99 798v57h301v-57h-301z" />
    <glyph glyph-name="acute.uc" horiz-adv-x="650" 
d="M450 934l-108 -153h-66l88 153h86z" />
    <glyph glyph-name="circumflex.uc" horiz-adv-x="650" 
d="M484 781h-69l-90 104l-90 -104h-69l125 153h68z" />
    <glyph glyph-name="caron.uc" horiz-adv-x="556" 
d="M443 934l-125 -153h-68l-125 153h69l90 -105l90 105h69z" />
    <glyph glyph-name="breve.uc" horiz-adv-x="500" 
d="M415 928q-12 -139 -165 -139t-165 139h56q5 -40 34 -61.5t75 -21.5t75 21.5t34 61.5h56z" />
    <glyph glyph-name="dotaccent.uc" horiz-adv-x="500" 
d="M212 797v76h75v-76h-75z" />
    <glyph glyph-name="ring.uc" horiz-adv-x="500" 
d="M368 867q0 -49 -34.5 -84t-83.5 -35t-83.5 35t-34.5 84t34.5 83.5t83.5 34.5t83.5 -34.5t34.5 -83.5zM319 867q0 28 -20 48t-49 20t-49 -20t-20 -48q0 -29 20.5 -49t48.5 -20t48.5 20t20.5 49z" />
    <glyph glyph-name="tilde.uc" horiz-adv-x="650" 
d="M482 844q-51 -50 -95 -50q-32 0 -71 23q-36 21 -56 21q-27 0 -59 -32l-37 36q51 51 95 51q33 0 71 -24q32 -20 56 -20q27 0 59 32z" />
    <glyph glyph-name="hungarumlaut.uc" horiz-adv-x="500" 
d="M304 934l-108 -153h-66l89 153h85zM467 934l-109 -153h-65l89 153h85z" />
    <glyph glyph-name="brevecyr.uc" horiz-adv-x="500" 
d="M396 883q-8 -126 -146 -126t-146 126h64q6 -74 82 -74t82 74h64z" />
    <glyph glyph-name="diedot.uc" horiz-adv-x="650" 
d="M255 789h-72v89h72v-89z" />
    <glyph glyph-name="Tcedilla" horiz-adv-x="547" 
d="M518 644h-206v-644h-76v644h-206v68h488v-68zM336 -67l-59 -149h-79l71 149h67z" />
    <glyph glyph-name="caroncomma" 
d="M626 719l-51 -152h-58l39 152h70z" />
    <glyph glyph-name="commaaccent" horiz-adv-x="264" 
d="M109 -216h-78l71 149h66z" />
    <glyph glyph-name="commaturn" horiz-adv-x="264" 
d="M236 747l-108 -153h-66l88 153h86z" />
    <glyph glyph-name="tcedilla" horiz-adv-x="332" 
d="M279 0h-51q-61 0 -93.5 37t-32.5 95v302h-62v55h62v154h72v-154h105v-55h-105v-300q0 -72 67 -72h38v-62zM227 -67l-59 -149h-79l71 149h67z" />
    <glyph glyph-name="undercommaaccent" horiz-adv-x="264" 
d="M109 -216h-78l71 149h66z" />
    <glyph glyph-name="commaaccent.ss01" horiz-adv-x="264" 
d="M184 -133q0 -42 -28.5 -69t-75.5 -27v45q23 0 38.5 14.5t15.5 36.5t-15.5 36.5t-38.5 14.5v45q47 0 75.5 -27t28.5 -69z" />
    <glyph glyph-name="undercommaaccent.ss01" horiz-adv-x="264" 
d="M184 -133q0 -42 -28.5 -69t-75.5 -27v45q23 0 38.5 14.5t15.5 36.5t-15.5 36.5t-38.5 14.5v45q47 0 75.5 -27t28.5 -69z" />
    <glyph glyph-name="commaturn.ss01" horiz-adv-x="264" 
d="M169 557q-46 0 -75 27.5t-29 68.5q0 42 28.5 69t75.5 27v-44q-23 0 -38.5 -15t-15.5 -37q0 -21 15.5 -36t38.5 -15v-45z" />
    <glyph glyph-name="Tcedilla.ss01" horiz-adv-x="547" 
d="M518 644h-206v-644h-76v644h-206v68h488v-68zM329 -133q0 -42 -28.5 -69t-75.5 -27v45q23 0 38.5 14.5t15.5 36.5t-15.5 36.5t-38.5 14.5v45q47 0 75.5 -27t28.5 -69z" />
    <glyph glyph-name="tcedilla.ss01" horiz-adv-x="332" 
d="M279 0h-51q-61 0 -93.5 37t-32.5 95v302h-62v55h62v154h72v-154h105v-55h-105v-300q0 -72 67 -72h38v-62zM241 -133q0 -42 -28.5 -69t-75.5 -27v45q23 0 38.5 14.5t15.5 36.5t-15.5 36.5t-38.5 14.5v45q47 0 75.5 -27t28.5 -69z" />
    <glyph glyph-name="caroncomma.ss01" 
d="M620 596l-68 -65v190h68v-125z" />
    </font>
</defs>
</svg>
